Loading...
Error

(Pop, Jazz, Rock, Soft Rock, Vocal) VA - Lazy Sunday (2004) [FLAC (Tracks+.CUE), lossless]

Статистика раздачи
Размер:  389 MB   |    Зарегистрирован:  1 год 2 месяца   |    Скачан:  2 раза

Полного источника не было: 3 дня

Сидов:  0  |  0 KB/s  ]   Личеров:  0  |  0 KB/s  ]

* - сиды/пиры с внешних источников

   
 
Автор Сообщение

Direktor Пол:Муж

02-Авг-2016 07:08

VA - Lazy Sunday

Жанр: Pop, Jazz, Rock, Soft Rock, Vocal
Год выпуска: 2004
Источник: CD
Производитель: The Mail On Sunday – MOS023
Аудиокодек: FLAC
Тип рипа: Tracks+.CUE
Битрейт: lossless
Продолжительность: 01:01:42

Треклист:

01. Chantz - Lean on Me.
02. Katie Melua - The Closest Thing to Crazy.
03. Spice Girls - Viva Forever.
04. Engelbert Humperdinck - I Want to Wake Up With You.
05. Gwyneth Herbert - Fever.
06. Jamie Cullum - What a Difference a Day Makes.
07. Tom Jones - A Taste of Honey.
08. Dusty Springfield - I Just Don't Know What to Do With Myself.
09. Lighthouse Family - Lifted.
10. Nina Simone - I Put a Spell on You.
11. Diana Krall - Temptation.
12. Matt Dusk - Two Shots.
13. Matt Bianco - Ordinary Day.
14. The Moody Blues - Nights in White Satin.
15. Ella Fitzgerald - Ev'ry Time We Say Goodbye.
16. No Artist - Untitled
17. No Artist - Untitled
18. No Artist - Untitled
19. No Artist - Untitled
20. No Artist - Untitled

Discogs

Код:

Exact Audio Copy V1.1 from 23. June 2015

Отчёт EAC об извлечении, выполненном 25. июля 2016, 21:18

Various / Lazy Sunday

Дисковод: PLEXTOR DVDR   PX-712A   Adapter: 8  ID: 0

Режим чтения                 : Достоверность
Использование точного потока : Да
Отключение кэша аудио        : Да
Использование указателей C2  : Нет

Коррекция смещения при чтении                     : 30
Способность читать области Lead-in и Lead-out     : Нет
Заполнение пропущенных сэмплов тишиной            : Да
Удаление блоков с тишиной в начале и конце        : Нет
При вычислениях CRC использовались нулевые сэмплы : Да
Интерфейс                                         : Установленный внешний ASPI-интерфейс
Обработка зазоров                                 : Добавлено к предыдущему треку

Выходной формат          : Пользовательский кодировщик
Выбранный битрейт        : 128 kBit/s
Качество                 : Высокий
Добавление ID3-тега      : Нет
Утилита сжатия           : C:\Program Files\Exact Audio Copy\FLAC\FLAC.EXE
Дополнительные параметры : -V -8 -T "Genre=%genre%" -T "Artist=%artist%" -T "Title=%title%" -T "Album=%albumtitle%" -T "Date=%year%" -T "Tracknumber=%tracknr%" -T "Comment=%comment%" %source%

TOC извлечённого CD

     Трек |   Старт  | Длительность | Начальный сектор | Конечный сектор
    ---------------------------------------------------------------------
       1  |  0:00.00 |    4:01.33   |           0      |      18107
       2  |  4:01.33 |    4:14.35   |       18108      |      37192
       3  |  8:15.68 |    5:12.50   |       37193      |      60642
       4  | 13:28.43 |    3:57.16   |       60643      |      78433
       5  | 17:25.59 |    4:07.20   |       78434      |      96978
       6  | 21:33.04 |    5:10.57   |       96979      |     120285
       7  | 26:43.61 |    2:51.51   |      120286      |     133161
       8  | 29:35.37 |    3:06.64   |      133162      |     147175
       9  | 32:42.26 |    4:34.52   |      147176      |     167777
      10  | 37:17.03 |    2:38.01   |      167778      |     179628
      11  | 39:55.04 |    4:29.55   |      179629      |     199858
      12  | 44:24.59 |    4:30.65   |      199859      |     220173
      13  | 48:55.49 |    4:41.28   |      220174      |     241276
      14  | 53:37.02 |    4:28.74   |      241277      |     261450
      15  | 58:06.01 |    3:36.18   |      261451      |     277668
      16  | 61:42.19 |    3:32.51   |      277669      |     293619
      17  | 65:14.70 |    3:17.73   |      293620      |     308467
      18  | 68:32.68 |    4:05.12   |      308468      |     326854
      19  | 72:38.05 |    2:52.48   |      326855      |     339802
      20  | 75:30.53 |    3:35.02   |      339803      |     355929

Трек  1

     Имя файла I:\MOI_RAZDACI\VA_Lazy.Sunday_2004\VA_Lazy.Sunday_2004\01. Chantz - Lean on Me.wav

     Длина предзазора  0:00:02.00

     Пиковый уровень 97.9 %
     Скорость извлечения 3.7 X
     Качество трека 100.0 %
     CRC теста 7D8F726D
     CRC копии 7D8F726D
     Трек не обнаружен в базе AccurateRip
     Копирование... OK

Трек  2

     Имя файла I:\MOI_RAZDACI\VA_Lazy.Sunday_2004\VA_Lazy.Sunday_2004\02. Katie Melua - The Closest Thing to Crazy.wav

     Пиковый уровень 97.9 %
     Скорость извлечения 3.7 X
     Качество трека 100.0 %
     CRC теста 8DCCAE81
     CRC копии 8DCCAE81
     Трек не обнаружен в базе AccurateRip
     Копирование... OK

Трек  3

     Имя файла I:\MOI_RAZDACI\VA_Lazy.Sunday_2004\VA_Lazy.Sunday_2004\03. Spice Girls - Viva Forever.wav

     Пиковый уровень 97.9 %
     Скорость извлечения 3.8 X
     Качество трека 100.0 %
     CRC теста F7B08161
     CRC копии F7B08161
     Трек не обнаружен в базе AccurateRip
     Копирование... OK

Трек  4

     Имя файла I:\MOI_RAZDACI\VA_Lazy.Sunday_2004\VA_Lazy.Sunday_2004\04. Engelbert Humperdinck - I Want to Wake Up With You.wav

     Пиковый уровень 86.6 %
     Скорость извлечения 3.7 X
     Качество трека 100.0 %
     CRC теста 728F9F7A
     CRC копии 728F9F7A
     Трек не обнаружен в базе AccurateRip
     Копирование... OK

Трек  5

     Имя файла I:\MOI_RAZDACI\VA_Lazy.Sunday_2004\VA_Lazy.Sunday_2004\05. Gwyneth Herbert - Fever.wav

     Длина предзазора  0:00:00.61

     Пиковый уровень 99.4 %
     Скорость извлечения 3.7 X
     Качество трека 100.0 %
     CRC теста 35D5E7FB
     CRC копии 35D5E7FB
     Трек не обнаружен в базе AccurateRip
     Копирование... OK

Трек  6

     Имя файла I:\MOI_RAZDACI\VA_Lazy.Sunday_2004\VA_Lazy.Sunday_2004\06. Jamie Cullum - What a Difference a Day Makes.wav

     Пиковый уровень 98.8 %
     Скорость извлечения 3.5 X
     Качество трека 99.9 %
     CRC теста FF8636A8
     CRC копии FF8636A8
     Трек не обнаружен в базе AccurateRip
     Копирование... OK

Трек  7

     Имя файла I:\MOI_RAZDACI\VA_Lazy.Sunday_2004\VA_Lazy.Sunday_2004\07. Tom Jones - A Taste of Honey.wav

     Пиковый уровень 98.8 %
     Скорость извлечения 3.6 X
     Качество трека 100.0 %
     CRC теста B0911F5A
     CRC копии B0911F5A
     Трек не обнаружен в базе AccurateRip
     Копирование... OK

Трек  8

     Имя файла I:\MOI_RAZDACI\VA_Lazy.Sunday_2004\VA_Lazy.Sunday_2004\08. Dusty Springfield - I Just Don't Know What to Do With Myself.wav

     Пиковый уровень 97.9 %
     Скорость извлечения 3.7 X
     Качество трека 100.0 %
     CRC теста 1717714C
     CRC копии 1717714C
     Трек не обнаружен в базе AccurateRip
     Копирование... OK

Трек  9

     Имя файла I:\MOI_RAZDACI\VA_Lazy.Sunday_2004\VA_Lazy.Sunday_2004\09. Lighthouse Family - Lifted.wav

     Пиковый уровень 97.9 %
     Скорость извлечения 3.8 X
     Качество трека 100.0 %
     CRC теста B6B28CEC
     CRC копии B6B28CEC
     Трек не обнаружен в базе AccurateRip
     Копирование... OK

Трек 10

     Имя файла I:\MOI_RAZDACI\VA_Lazy.Sunday_2004\VA_Lazy.Sunday_2004\10. Nina Simone - I Put a Spell on You.wav

     Длина предзазора  0:00:00.48

     Пиковый уровень 97.9 %
     Скорость извлечения 3.2 X
     Качество трека 99.9 %
     CRC теста DF3AE039
     CRC копии DF3AE039
     Трек не обнаружен в базе AccurateRip
     Копирование... OK

Трек 11

     Имя файла I:\MOI_RAZDACI\VA_Lazy.Sunday_2004\VA_Lazy.Sunday_2004\11. Diana Krall - Temptation.wav

     Пиковый уровень 97.9 %
     Скорость извлечения 3.7 X
     Качество трека 100.0 %
     CRC теста 2BE702C2
     CRC копии 2BE702C2
     Трек не обнаружен в базе AccurateRip
     Копирование... OK

Трек 12

     Имя файла I:\MOI_RAZDACI\VA_Lazy.Sunday_2004\VA_Lazy.Sunday_2004\12. Matt Dusk - Two Shots.wav

     Пиковый уровень 97.9 %
     Скорость извлечения 3.7 X
     Качество трека 100.0 %
     CRC теста C95D9AA3
     CRC копии C95D9AA3
     Трек не обнаружен в базе AccurateRip
     Копирование... OK

Трек 13

     Имя файла I:\MOI_RAZDACI\VA_Lazy.Sunday_2004\VA_Lazy.Sunday_2004\13. Matt Bianco - Ordinary Day.wav

     Длина предзазора  0:00:00.22

     Пиковый уровень 98.8 %
     Скорость извлечения 3.8 X
     Качество трека 100.0 %
     CRC теста 18CFE178
     CRC копии 18CFE178
     Трек не обнаружен в базе AccurateRip
     Копирование... OK

Трек 14

     Имя файла I:\MOI_RAZDACI\VA_Lazy.Sunday_2004\VA_Lazy.Sunday_2004\14. The Moody Blues - Nights in White Satin.wav

     Пиковый уровень 97.9 %
     Скорость извлечения 3.8 X
     Качество трека 100.0 %
     CRC теста 7F5F82A8
     CRC копии 7F5F82A8
     Трек не обнаружен в базе AccurateRip
     Копирование... OK

Трек 15

     Имя файла I:\MOI_RAZDACI\VA_Lazy.Sunday_2004\VA_Lazy.Sunday_2004\15. Ella Fitzgerald - Ev'ry Time We Say Goodbye.wav

     Длина предзазора  0:00:00.05

     Пиковый уровень 97.9 %
     Скорость извлечения 3.7 X
     Качество трека 100.0 %
     CRC теста 6309397A
     CRC копии 6309397A
     Трек не обнаружен в базе AccurateRip
     Копирование... OK

Ни одного трека нет в базе AccurateRip

Ошибок не произошло

Конец отчёта

==== Контрольная сумма отчёта E97E497E14E9DFF42788661B78ED193E3DE97B93B67521D04DFB5C218E8C5080 ====

Код:

REM GENRE Pop
REM DATE 2004
REM DISCID 36128914
REM COMMENT "ExactAudioCopy v1.1"
PERFORMER "Various"
TITLE "Lazy Sunday"
FILE "01. Chantz - Lean on Me.wav" WAVE
  TRACK 01 AUDIO
    TITLE "Lean on Me"
    PERFORMER "Chantz"
    INDEX 01 00:00:00
FILE "02. Katie Melua - The Closest Thing to Crazy.wav" WAVE
  TRACK 02 AUDIO
    TITLE "The Closest Thing to Crazy"
    PERFORMER "Katie Melua"
    INDEX 01 00:00:00
FILE "03. Spice Girls - Viva Forever.wav" WAVE
  TRACK 03 AUDIO
    TITLE "Viva Forever"
    PERFORMER "Spice Girls"
    INDEX 01 00:00:00
FILE "04. Engelbert Humperdinck - I Want to Wake Up With You.wav" WAVE
  TRACK 04 AUDIO
    TITLE "I Want to Wake Up With You"
    PERFORMER "Engelbert Humperdinck"
    INDEX 01 00:00:00
  TRACK 05 AUDIO
    TITLE "Fever"
    PERFORMER "Gwyneth Herbert"
    INDEX 00 03:56:30
FILE "05. Gwyneth Herbert - Fever.wav" WAVE
    INDEX 01 00:00:00
FILE "06. Jamie Cullum - What a Difference a Day Makes.wav" WAVE
  TRACK 06 AUDIO
    TITLE "What a Difference a Day Makes"
    PERFORMER "Jamie Cullum"
    INDEX 01 00:00:00
FILE "07. Tom Jones - A Taste of Honey.wav" WAVE
  TRACK 07 AUDIO
    TITLE "A Taste of Honey"
    PERFORMER "Tom Jones"
    INDEX 01 00:00:00
FILE "08. Dusty Springfield - I Just Don't Know What to Do With Myself.wav" WAVE
  TRACK 08 AUDIO
    TITLE "I Just Don't Know What to Do With Myself"
    PERFORMER "Dusty Springfield"
    INDEX 01 00:00:00
FILE "09. Lighthouse Family - Lifted.wav" WAVE
  TRACK 09 AUDIO
    TITLE "Lifted"
    PERFORMER "Lighthouse Family"
    INDEX 01 00:00:00
  TRACK 10 AUDIO
    TITLE "I Put a Spell on You"
    PERFORMER "Nina Simone"
    INDEX 00 04:34:04
FILE "10. Nina Simone - I Put a Spell on You.wav" WAVE
    INDEX 01 00:00:00
FILE "11. Diana Krall - Temptation.wav" WAVE
  TRACK 11 AUDIO
    TITLE "Temptation"
    PERFORMER "Diana Krall"
    INDEX 01 00:00:00
FILE "12. Matt Dusk - Two Shots.wav" WAVE
  TRACK 12 AUDIO
    TITLE "Two Shots"
    PERFORMER "Matt Dusk"
    INDEX 01 00:00:00
  TRACK 13 AUDIO
    TITLE "Ordinary Day"
    PERFORMER "Matt Bianco"
    INDEX 00 04:30:43
FILE "13. Matt Bianco - Ordinary Day.wav" WAVE
    INDEX 01 00:00:00
FILE "14. The Moody Blues - Nights in White Satin.wav" WAVE
  TRACK 14 AUDIO
    TITLE "Nights in White Satin"
    PERFORMER "The Moody Blues"
    INDEX 01 00:00:00
  TRACK 15 AUDIO
    TITLE "Ev'ry Time We Say Goodbye"
    PERFORMER "Ella Fitzgerald"
    INDEX 00 04:28:69
FILE "15. Ella Fitzgerald - Ev'ry Time We Say Goodbye.wav" WAVE
    INDEX 01 00:00:00
FILE "16. [unknown] - [Unknown].wav" WAVE
  TRACK 16 AUDIO
    TITLE "[Unknown]"
    PERFORMER "[unknown]"
    INDEX 01 00:00:00
FILE "17. [unknown] - [unknown].wav" WAVE
  TRACK 17 AUDIO
    TITLE "[unknown]"
    PERFORMER "[unknown]"
    INDEX 01 00:00:00
FILE "18. [unknown] - [unknown].wav" WAVE
  TRACK 18 AUDIO
    TITLE "[unknown]"
    PERFORMER "[unknown]"
    INDEX 01 00:00:00
FILE "19. [unknown] - [unknown].wav" WAVE
  TRACK 19 AUDIO
    TITLE "[unknown]"
    PERFORMER "[unknown]"
    INDEX 01 00:00:00
FILE "20. [unknown] - [unknown].wav" WAVE
  TRACK 20 AUDIO
    TITLE "[unknown]"
    PERFORMER "[unknown]"
    INDEX 01 00:00:00
Для увеличения картинки щелкните мышкой по превью
picpicpicpic

Этот торрент недоступен для скачивания без регистрации, однако доступен по публичной magnet-ссылке (источники с публичных трекеров). Перед использованием ссылки прочтите, пожалуйста Пользовательское соглашение, а также как можно дольше оставайтесь на раздаче! Для того, чтобы скачать сам торрент-файл (который видит больше источников), а также для того, чтобы поблагодарить релизера, вам необходимо зарегистрироваться. Если регистрироваться лень - вы можете также попробовать скачать релиз по нашим партнерским ссылкам ниже.

[underverse.su].t68569.torrent
Трекер: Зарегистрирован   [ 02.08.2016 07:08 ]  

Статус: проверено (by Бишеп at 02.08.2016 11:04)
Поблагодарили: пока никто не поблагодарил...
Тип торрента: публичный - доступные источники с открытых трекеров: 
Размер: 389 MB (занимает 0,09 DVDR, для записи нужно 1 болванка DVDR/RW)
 
 
Похожие темы
Форум Тема Автор Торрент Отв. Посл. сооб.
Зарубежная Pop Музыка (Pop, Jazz) Barbra Streisand - Back To Brooklyn (2013) [MP3, 320 kbps] 90ytr90
1 | 0

0 | 313

3

26.11.2016 15:28

Зарубежная Pop Музыка (Pop, Jazz, Holiday) Barbra Streisand - The Classic Christmas Album (2013) [MP3, 320 kbps] 90ytr90
2 | 0

0 | 327

2

11.11.2016 21:54

Зарубежная Pop Музыка (Pop, Jazz) Donna Lewis - Brand New Day (2015) [MP3, 320 kbps] 90ytr90
3 | 0

0 | 215

1

08.11.2016 14:39

Зарубежная Pop Музыка (Pop, Jazz, Soul) Haley Reinhart - Better (2016) [MP3, 320 kbps] 90ytr90
1 | 0

0 | 322

1

05.11.2016 13:34

Отечественная Pop Музыка (Pop, Jazz) Варвара Визбор - Варежка (2016) [MP3, 320 kbps CBR] Evgenii82
19 | 1

1 | 557

6

01.11.2016 22:40

Зарубежная Поп Музыка (Lossless) (Pop, Jazz, Easy Listening) Rumer - Into Colour (2015) [FLAC (Image+.Cue), Lossless] Бишеп
9 | 1

0 | 485

1

11.11.2016 19:44

Зарубежная Поп Музыка (Lossless) (Pop, Jazz, Lounge) Flabby - I'm Feeling Good Today (2014) [FLAC (Image+.CUE), Lossless] Бишеп
0 | 0

0 | 1024

11

15.03.2014 05:33

Отечественная Поп Музыка (Lossless) (Pop, Jazz, Soul) Jamala - All Or Nothing (2013) [FLAC (Image+.CUE), Lossless] Бишеп
3 | 0

0 | 375

1

21.11.2016 16:48


Яндекс.Метрика powered by Sphinx


В Н И М А Н И Е
Сайт не распространяет и не хранит электронные версии произведений, а лишь бесплатно и без коммерческой выгоды (не требуя взамен платы,
SMS и т.д.) предоставляет доступ к создаваемому пользователями каталогу ссылок на торрент-файлы, которые содержат только списки хеш-сумм.
Убедительная просьба с жалобами обращаться напрямую к пользователю, разместившему торрент файл.

Вверх