Loading...
Error

(Jazz, Post-Bop) Brad Mehldau Trio - Blues And Ballads (2016) [FLAC (Tracks+.Cue), Lossless]

Статистика раздачи
Размер:  298 MB   |    Зарегистрирован:  1 год 6 месяцев   |    Скачан:  6 раз

Полного источника не было: 6 часов

Сидов:  0  |  0 KB/s  ]   Личеров:  0  |  0 KB/s  ]

* - сиды/пиры с внешних источников

   
 
Автор Сообщение

Бишеп Пол:Муж

12-Июл-2016 06:40

Brad Mehldau Trio - Blues And Ballads

Жанр: Jazz, Post-Bop
Год выпуска: 2016
Источник: CD
Производитель диска: Nonesuch Records - 7559-79465-0
Аудиокодек: FLAC
Тип рипа: Tracks+.CUE
Битрейт аудио: lossless
Продолжительность: 00:55:43


Треклист:
01. Since I Fell for You (Johnson)
02. I Concentrate on You (Porter)
03. Little Person (Brion)
04. Cheryl (Parker)
05. These Foolish Things (Remind Me of You) (Strachey-Marvell)
06. And I Love Her (Lennon-McCartney)
07. My Valentine (McCartney)

Код:

Exact Audio Copy V1.1 from 23. June 2015

EAC extraction logfile from 11. June 2016, 15:47

Brad Mehldau Trio / Blues And Ballads

Used drive  : PLEXTOR DVDR   PX-L890SA   Adapter: 1  ID: 2

Read mode               : Secure
Utilize accurate stream : Yes
Defeat audio cache      : Yes
Make use of C2 pointers : No

Read offset correction                      : 6
Overread into Lead-In and Lead-Out          : No
Fill up missing offset samples with silence : Yes
Delete leading and trailing silent blocks   : No
Null samples used in CRC calculations       : Yes
Used interface                              : Native Win32 interface for Win NT & 2000
Gap handling                                : Appended to previous track

Used output format              : User Defined Encoder
Selected bitrate                : 128 kBit/s
Quality                         : High
Add ID3 tag                     : No
Command line compressor         : C:\Program Files (x86)\Exact Audio Copy\FLAC\FLAC.EXE
Additional command line options : -8 -V -T "ARTIST=%artist%" -T "TITLE=%title%" -T "ALBUM=%albumtitle%" -T "DATE=%year%" -T "TRACKNUMBER=%tracknr%" -T "TOTALTRACKS=%numtracks%" -T "GENRE=%genre%" -T "ALBUMARTIST=%albumartist%" -T "ALBUM ARTIST=%albumartist%" -T "COMMENT=EAC Secure Mode, Test & Copy, AccurateRip, FLAC -8" %source%

TOC of the extracted CD

     Track |   Start  |  Length  | Start sector | End sector
    ---------------------------------------------------------
        1  |  0:00.00 | 10:56.16 |         0    |    49215   
        2  | 10:56.16 |  7:23.49 |     49216    |    82489   
        3  | 18:19.65 |  3:55.27 |     82490    |   100141   
        4  | 22:15.17 |  7:42.44 |    100142    |   134835   
        5  | 29:57.61 |  6:03.37 |    134836    |   162097   
        6  | 36:01.23 |  9:29.67 |    162098    |   204839   
        7  | 45:31.15 | 10:12.26 |    204840    |   250765   

Track  1

     Filename D:\Flac Rips\01 - Since I Fell for You.wav

     Pre-gap length  0:00:02.00

     Peak level 97.9 %
     Extraction speed 4.0 X
     Track quality 100.0 %
     Test CRC 07E280CB
     Copy CRC 07E280CB
     Track not present in AccurateRip database
     Copy OK

Track  2

     Filename D:\Flac Rips\02 - I Concentrate On You.wav

     Peak level 98.2 %
     Extraction speed 4.7 X
     Track quality 100.0 %
     Test CRC 327B7592
     Copy CRC 327B7592
     Track not present in AccurateRip database
     Copy OK

Track  3

     Filename D:\Flac Rips\03 - Little Person.wav

     Pre-gap length  0:00:02.61

     Peak level 97.9 %
     Extraction speed 3.8 X
     Track quality 99.9 %
     Test CRC 954B3945
     Copy CRC 954B3945
     Track not present in AccurateRip database
     Copy OK

Track  4

     Filename D:\Flac Rips\04 - Cheryl.wav

     Pre-gap length  0:00:01.72

     Peak level 98.3 %
     Extraction speed 5.5 X
     Track quality 100.0 %
     Test CRC 65D92C42
     Copy CRC 65D92C42
     Track not present in AccurateRip database
     Copy OK

Track  5

     Filename D:\Flac Rips\05 - These Foolish Things (Remind Me of You).wav

     Pre-gap length  0:00:03.50

     Peak level 97.8 %
     Extraction speed 5.8 X
     Track quality 100.0 %
     Test CRC 832CEFBD
     Copy CRC 832CEFBD
     Track not present in AccurateRip database
     Copy OK

Track  6

     Filename D:\Flac Rips\06 - And I Love Her.wav

     Pre-gap length  0:00:02.59

     Peak level 98.5 %
     Extraction speed 6.4 X
     Track quality 100.0 %
     Test CRC 12BF8F9E
     Copy CRC 12BF8F9E
     Track not present in AccurateRip database
     Copy OK

Track  7

     Filename D:\Flac Rips\07 - My Valentine.wav

     Pre-gap length  0:00:04.31

     Peak level 98.1 %
     Extraction speed 7.0 X
     Track quality 100.0 %
     Test CRC 75D22693
     Copy CRC 75D22693
     Track not present in AccurateRip database
     Copy OK

None of the tracks are present in the AccurateRip database

No errors occurred

End of status report

---- CUETools DB Plugin V2.1.6

[CTDB TOCID: tWuHTepPmYtMtIYNUJATpT9S4sE-] found
Submit result: tWuHTepPmYtMtIYNUJATpT9S4sE- has been confirmed
Track | CTDB Status
  1   | (9/9) Accurately ripped
  2   | (9/9) Accurately ripped
  3   | (9/9) Accurately ripped
  4   | (9/9) Accurately ripped
  5   | (9/9) Accurately ripped
  6   | (9/9) Accurately ripped
  7   | (9/9) Accurately ripped

==== Log checksum 79F917C42BD5DA879E8B105C9F0C15F4BC7AA84042BBE4CB2591B4B73EF62124 ====

Код:

REM GENRE Jazz
REM DATE 2016
REM DISCID 5B0D0F07
REM COMMENT "ExactAudioCopy v1.1"
PERFORMER "Brad Mehldau"
TITLE "Blues and Ballads"
FILE "01 - Since I Fell for You.wav" WAVE
  TRACK 01 AUDIO
    TITLE "Since I Fell for You"
    PERFORMER "Brad Mehldau"
    INDEX 01 00:00:00
FILE "02 - I Concentrate on You.wav" WAVE
  TRACK 02 AUDIO
    TITLE "I Concentrate on You"
    PERFORMER "Brad Mehldau"
    INDEX 01 00:00:00
  TRACK 03 AUDIO
    TITLE "Little Person"
    PERFORMER "Brad Mehldau"
    INDEX 00 07:20:63
FILE "03 - Little Person.wav" WAVE
    INDEX 01 00:00:00
  TRACK 04 AUDIO
    TITLE "Cheryl"
    PERFORMER "Brad Mehldau"
    INDEX 00 03:53:30
FILE "04 - Cheryl.wav" WAVE
    INDEX 01 00:00:00
  TRACK 05 AUDIO
    TITLE "These Foolish Things (Remind Me of You)"
    PERFORMER "Brad Mehldau"
    INDEX 00 07:38:69
FILE "05 - These Foolish Things (Remind Me of You).wav" WAVE
    INDEX 01 00:00:00
  TRACK 06 AUDIO
    TITLE "And I Love Her"
    PERFORMER "Brad Mehldau"
    INDEX 00 06:00:53
FILE "06 - And I Love Her.wav" WAVE
    INDEX 01 00:00:00
  TRACK 07 AUDIO
    TITLE "My Valentine"
    PERFORMER "Brad Mehldau"
    INDEX 00 09:25:36
FILE "07 - My Valentine.wav" WAVE
    INDEX 01 00:00:00

Этот торрент недоступен для скачивания без регистрации, однако доступен по публичной magnet-ссылке (источники с публичных трекеров). Перед использованием ссылки прочтите, пожалуйста Пользовательское соглашение, а также как можно дольше оставайтесь на раздаче! Для того, чтобы скачать сам торрент-файл (который видит больше источников), а также для того, чтобы поблагодарить релизера, вам необходимо зарегистрироваться. Если регистрироваться лень - вы можете также попробовать скачать релиз по нашим партнерским ссылкам ниже. Кроме того, зарегистрированным пользователям не показывается всплывающая реклама при скачивании.

[underverse.su].t67989.torrent
Трекер: Зарегистрирован   [ 12.07.2016 06:40 ]  

Статус: проверено (by Бишеп at 12.07.2016 06:40)
Поблагодарили: 1 человек
Тип торрента: публичный - доступные источники с открытых трекеров: 
Размер: 298 MB (занимает 0,07 DVDR, для записи нужно 1 болванка DVDR/RW)
 
 
Похожие темы
Форум Тема Автор Торрент Отв. Посл. сооб.
Jazz (Jazz, Post-Bop, Big Band) Chuck Israels Jazz Orchestra - Concerto Peligroso (2017) [MP3, 320 kbps CBR] Darkferse
7 | 2

0 | 118

3

12.12.2017 09:38


Яндекс.Метрика powered by Sphinx


В Н И М А Н И Е
Сайт не распространяет и не хранит электронные версии произведений, а лишь бесплатно и без коммерческой выгоды (не требуя взамен платы,
SMS и т.д.) предоставляет доступ к создаваемому пользователями каталогу ссылок на торрент-файлы, которые содержат только списки хеш-сумм.
Убедительная просьба с жалобами обращаться напрямую к пользователю, разместившему торрент файл.

Вверх