Loading...
Error

(Pop) VA - Лайма Вайкуле и Валерий Леонтьев - Ах, вернисаж, ах, вернисаж (песни Раймонда Паулса) (1995) [FLAC (Tracks+.Cue), Lossless]

Статистика раздачи
Размер:  383 MB   |    Зарегистрирован:  1 год 5 месяцев   |    Скачан:  3 раза

Полного источника не было: 1 месяц

Сидов:  0  |  0 KB/s  ]   Личеров:  0  |  0 KB/s  ]

* - сиды/пиры с внешних источников

   
 
Автор Сообщение

Бишеп Пол:Муж

06-Июл-2016 18:17

VA - Лайма Вайкуле и Валерий Леонтьев - Ах, вернисаж, ах, вернисаж (песни Раймонда Паулса)

Жанр: Pop
Год выпуска: 1995
Источник: CD
Производитель диска: Мелодия - MEL CD 60 00335
Аудиокодек: FLAC
Тип рипа: Tracks+.CUE
Битрейт аудио: lossless
Продолжительность: 01:05:30


Треклист:
Лайма Вайкуле:
01. Еще не вечер
02. Чарли
03. Самый медленный поезд
04. Пугало
05. Шаляй-валяй
06. Деловая женщина
07. Шерлок Холмс
08. Ночной костёр
09. Вернисаж
Валерий Леонтьев:
10. Притяжение любви
11. Верооко
12. Маяк
13. Зелёный свет
14. Три минуты
15. Муза
16. Затмение сердца

Код:

Exact Audio Copy V1.0 beta 1 from 15. November 2010

EAC extraction logfile from 7. December 2015, 14:13

Various / Ах, вернисаж, ах, вернисаж

Used drive  : Optiarc DVD RW AD-7200A   Adapter: 0  ID: 0

Read mode               : Secure
Utilize accurate stream : Yes
Defeat audio cache      : Yes
Make use of C2 pointers : No

Read offset correction                      : 48
Overread into Lead-In and Lead-Out          : No
Fill up missing offset samples with silence : Yes
Delete leading and trailing silent blocks   : No
Null samples used in CRC calculations       : Yes
Used interface                              : Native Win32 interface for Win NT & 2000
Gap handling                                : Appended to previous track

Used output format              : User Defined Encoder
Selected bitrate                : 768 kBit/s
Quality                         : High
Add ID3 tag                     : No
Command line compressor         : C:\Program Files\Exact Audio Copy\Flac\flac.exe
Additional command line options : -8 -V -T "ARTIST=%a" -T "TITLE=%t" -T "ALBUM=%g" -T "DATE=%y" -T "TRACKNUMBER=%n" -T "TOTALTRACKS=%x" -T "GENRE=%m" -T "ALBUMARTIST=%v" -T "ALBUM ARTIST=%v" -T "COMMENT=EAC Secure Mode, Test & Copy, AccurateRip, FLAC -8" %s

TOC of the extracted CD

     Track |   Start  |  Length  | Start sector | End sector
    ---------------------------------------------------------
        1  |  0:00.00 |  3:43.25 |         0    |    16749   
        2  |  3:43.25 |  3:32.37 |     16750    |    32686   
        3  |  7:15.62 |  4:30.00 |     32687    |    52936   
        4  | 11:45.62 |  4:39.70 |     52937    |    73931   
        5  | 16:25.57 |  3:31.55 |     73932    |    89811   
        6  | 19:57.37 |  5:18.20 |     89812    |   113681   
        7  | 25:15.57 |  3:48.68 |    113682    |   130849   
        8  | 29:04.50 |  4:46.67 |    130850    |   152366   
        9  | 33:51.42 |  4:12.50 |    152367    |   171316   
       10  | 38:04.17 |  4:19.20 |    171317    |   190761   
       11  | 42:23.37 |  3:57.05 |    190762    |   208541   
       12  | 46:20.42 |  3:48.25 |    208542    |   225666   
       13  | 50:08.67 |  3:51.70 |    225667    |   243061   
       14  | 54:00.62 |  4:08.33 |    243062    |   261694   
       15  | 58:09.20 |  3:44.72 |    261695    |   278566   
       16  | 61:54.17 |  3:36.08 |    278567    |   294774   

Track  1

     Filename D:\Лайма Вайкуле & Валерий Леонтьев - Ах, вернисаж, ах, вернисаж (1995) [FLAC]\01 - Лайма Вайкуле - Еще не вечер.wav

     Pre-gap length  0:00:02.00

     Peak level 84.9 %
     Extraction speed 2.5 X
     Track quality 100.0 %
     Test CRC 00CE0394
     Copy CRC 00CE0394
     Track not present in AccurateRip database
     Copy OK

Track  2

     Filename D:\Лайма Вайкуле & Валерий Леонтьев - Ах, вернисаж, ах, вернисаж (1995) [FLAC]\02 - Лайма Вайкуле - Чарли.wav

     Pre-gap length  0:00:01.63

     Peak level 80.5 %
     Extraction speed 2.3 X
     Track quality 99.9 %
     Test CRC 3F840155
     Copy CRC 3F840155
     Track not present in AccurateRip database
     Copy OK

Track  3

     Filename D:\Лайма Вайкуле & Валерий Леонтьев - Ах, вернисаж, ах, вернисаж (1995) [FLAC]\03 - Лайма Вайкуле - Самый медленный поезд.wav

     Pre-gap length  0:00:02.12

     Peak level 74.6 %
     Extraction speed 3.0 X
     Track quality 100.0 %
     Test CRC 22B17311
     Copy CRC 22B17311
     Track not present in AccurateRip database
     Copy OK

Track  4

     Filename D:\Лайма Вайкуле & Валерий Леонтьев - Ах, вернисаж, ах, вернисаж (1995) [FLAC]\04 - Лайма Вайкуле - Пугало.wav

     Pre-gap length  0:00:01.50

     Peak level 67.9 %
     Extraction speed 2.9 X
     Track quality 99.9 %
     Test CRC A49CE00B
     Copy CRC A49CE00B
     Track not present in AccurateRip database
     Copy OK

Track  5

     Filename D:\Лайма Вайкуле & Валерий Леонтьев - Ах, вернисаж, ах, вернисаж (1995) [FLAC]\05 - Лайма Вайкуле - Шаляй-валяй.wav

     Pre-gap length  0:00:01.32

     Peak level 93.9 %
     Extraction speed 3.3 X
     Track quality 100.0 %
     Test CRC FE1F9582
     Copy CRC FE1F9582
     Track not present in AccurateRip database
     Copy OK

Track  6

     Filename D:\Лайма Вайкуле & Валерий Леонтьев - Ах, вернисаж, ах, вернисаж (1995) [FLAC]\06 - Лайма Вайкуле - Деловая женщина.wav

     Pre-gap length  0:00:02.37

     Peak level 84.4 %
     Extraction speed 3.8 X
     Track quality 100.0 %
     Test CRC D27A4E18
     Copy CRC D27A4E18
     Track not present in AccurateRip database
     Copy OK

Track  7

     Filename D:\Лайма Вайкуле & Валерий Леонтьев - Ах, вернисаж, ах, вернисаж (1995) [FLAC]\07 - Лайма Вайкуле - Шерлок Холмс.wav

     Pre-gap length  0:00:01.70

     Peak level 87.4 %
     Extraction speed 3.8 X
     Track quality 100.0 %
     Test CRC 29EF4E40
     Copy CRC 29EF4E40
     Track not present in AccurateRip database
     Copy OK

Track  8

     Filename D:\Лайма Вайкуле & Валерий Леонтьев - Ах, вернисаж, ах, вернисаж (1995) [FLAC]\08 - Лайма Вайкуле - Ночной костёр.wav

     Pre-gap length  0:00:02.00

     Peak level 78.4 %
     Extraction speed 3.6 X
     Track quality 99.9 %
     Test CRC 3ECAB957
     Copy CRC 3ECAB957
     Track not present in AccurateRip database
     Copy OK

Track  9

     Filename D:\Лайма Вайкуле & Валерий Леонтьев - Ах, вернисаж, ах, вернисаж (1995) [FLAC]\09 - Лайма Вайкуле - Вернисаж.wav

     Pre-gap length  0:00:02.55

     Peak level 87.0 %
     Extraction speed 3.7 X
     Track quality 99.9 %
     Test CRC 9BFF0D6C
     Copy CRC 9BFF0D6C
     Track not present in AccurateRip database
     Copy OK

Track 10

     Filename D:\Лайма Вайкуле & Валерий Леонтьев - Ах, вернисаж, ах, вернисаж (1995) [FLAC]\10 - Валерий Леонтьев - Притяжение любви.wav

     Pre-gap length  0:00:01.55

     Peak level 85.2 %
     Extraction speed 4.4 X
     Track quality 100.0 %
     Test CRC AD8121E6
     Copy CRC AD8121E6
     Track not present in AccurateRip database
     Copy OK

Track 11

     Filename D:\Лайма Вайкуле & Валерий Леонтьев - Ах, вернисаж, ах, вернисаж (1995) [FLAC]\11 - Валерий Леонтьев - Верооко.wav

     Pre-gap length  0:00:02.12

     Peak level 65.9 %
     Extraction speed 4.5 X
     Track quality 100.0 %
     Test CRC 6B42DC6D
     Copy CRC 6B42DC6D
     Track not present in AccurateRip database
     Copy OK

Track 12

     Filename D:\Лайма Вайкуле & Валерий Леонтьев - Ах, вернисаж, ах, вернисаж (1995) [FLAC]\12 - Валерий Леонтьев - Маяк.wav

     Pre-gap length  0:00:01.67

     Peak level 71.9 %
     Extraction speed 4.6 X
     Track quality 100.0 %
     Test CRC 94F75C23
     Copy CRC 94F75C23
     Track not present in AccurateRip database
     Copy OK

Track 13

     Filename D:\Лайма Вайкуле & Валерий Леонтьев - Ах, вернисаж, ах, вернисаж (1995) [FLAC]\13 - Валерий Леонтьев - Зелёный свет.wav

     Pre-gap length  0:00:02.05

     Peak level 66.6 %
     Extraction speed 4.8 X
     Track quality 100.0 %
     Test CRC 04C30B9A
     Copy CRC 04C30B9A
     Track not present in AccurateRip database
     Copy OK

Track 14

     Filename D:\Лайма Вайкуле & Валерий Леонтьев - Ах, вернисаж, ах, вернисаж (1995) [FLAC]\14 - Валерий Леонтьев - Три минуты.wav

     Pre-gap length  0:00:02.37

     Peak level 64.6 %
     Extraction speed 5.0 X
     Track quality 100.0 %
     Test CRC 974AB5A9
     Copy CRC 974AB5A9
     Track not present in AccurateRip database
     Copy OK

Track 15

     Filename D:\Лайма Вайкуле & Валерий Леонтьев - Ах, вернисаж, ах, вернисаж (1995) [FLAC]\15 - Валерий Леонтьев - Муза.wav

     Pre-gap length  0:00:02.45

     Peak level 84.6 %
     Extraction speed 5.0 X
     Track quality 100.0 %
     Test CRC 411A9532
     Copy CRC 411A9532
     Track not present in AccurateRip database
     Copy OK

Track 16

     Filename D:\Лайма Вайкуле & Валерий Леонтьев - Ах, вернисаж, ах, вернисаж (1995) [FLAC]\16 - Валерий Леонтьев - Затмение сердца.wav

     Pre-gap length  0:00:02.37

     Peak level 62.9 %
     Extraction speed 5.1 X
     Track quality 100.0 %
     Test CRC FF526187
     Copy CRC FF526187
     Track not present in AccurateRip database
     Copy OK

None of the tracks are present in the AccurateRip database

No errors occurred

End of status report

==== Log checksum 34B101B80A1FB92651FAFB63A15EC569238BA810A2353DFE8AACF7306E23EE29 ====

Код:

REM GENRE Pop
REM DATE 1995
REM DISCID E10F5A10
REM COMMENT "ExactAudioCopy v1.0b1"
PERFORMER "Various"
TITLE "Ах, вернисаж, ах, вернисаж"
FILE "01 - Лайма Вайкуле - Еще не вечер.wav" WAVE
  TRACK 01 AUDIO
    TITLE "Еще не вечер"
    PERFORMER "Лайма Вайкуле"
    INDEX 01 00:00:00
  TRACK 02 AUDIO
    TITLE "Чарли"
    PERFORMER "Лайма Вайкуле"
    INDEX 00 03:41:37
FILE "02 - Лайма Вайкуле - Чарли.wav" WAVE
    INDEX 01 00:00:00
  TRACK 03 AUDIO
    TITLE "Самый медленный поезд"
    PERFORMER "Лайма Вайкуле"
    INDEX 00 03:30:25
FILE "03 - Лайма Вайкуле - Самый медленный поезд.wav" WAVE
    INDEX 01 00:00:00
  TRACK 04 AUDIO
    TITLE "Пугало"
    PERFORMER "Лайма Вайкуле"
    INDEX 00 04:28:25
FILE "04 - Лайма Вайкуле - Пугало.wav" WAVE
    INDEX 01 00:00:00
  TRACK 05 AUDIO
    TITLE "Шаляй-валяй"
    PERFORMER "Лайма Вайкуле"
    INDEX 00 04:38:38
FILE "05 - Лайма Вайкуле - Шаляй-валяй.wav" WAVE
    INDEX 01 00:00:00
  TRACK 06 AUDIO
    TITLE "Деловая женщина"
    PERFORMER "Лайма Вайкуле"
    INDEX 00 03:29:18
FILE "06 - Лайма Вайкуле - Деловая женщина.wav" WAVE
    INDEX 01 00:00:00
  TRACK 07 AUDIO
    TITLE "Шерлок Холмс"
    PERFORMER "Лайма Вайкуле"
    INDEX 00 05:16:25
FILE "07 - Лайма Вайкуле - Шерлок Холмс.wav" WAVE
    INDEX 01 00:00:00
  TRACK 08 AUDIO
    TITLE "Ночной костёр"
    PERFORMER "Лайма Вайкуле"
    INDEX 00 03:46:68
FILE "08 - Лайма Вайкуле - Ночной костёр.wav" WAVE
    INDEX 01 00:00:00
  TRACK 09 AUDIO
    TITLE "Вернисаж"
    PERFORMER "Лайма Вайкуле"
    INDEX 00 04:44:12
FILE "09 - Лайма Вайкуле - Вернисаж.wav" WAVE
    INDEX 01 00:00:00
  TRACK 10 AUDIO
    TITLE "Притяжение любви"
    PERFORMER "Валерий Леонтьев"
    INDEX 00 04:10:70
FILE "10 - Валерий Леонтьев - Притяжение любви.wav" WAVE
    INDEX 01 00:00:00
  TRACK 11 AUDIO
    TITLE "Верооко"
    PERFORMER "Валерий Леонтьев"
    INDEX 00 04:17:08
FILE "11 - Валерий Леонтьев - Верооко.wav" WAVE
    INDEX 01 00:00:00
  TRACK 12 AUDIO
    TITLE "Маяк"
    PERFORMER "Валерий Леонтьев"
    INDEX 00 03:55:13
FILE "12 - Валерий Леонтьев - Маяк.wav" WAVE
    INDEX 01 00:00:00
  TRACK 13 AUDIO
    TITLE "Зелёный свет"
    PERFORMER "Валерий Леонтьев"
    INDEX 00 03:46:20
FILE "13 - Валерий Леонтьев - Зелёный свет.wav" WAVE
    INDEX 01 00:00:00
  TRACK 14 AUDIO
    TITLE "Три минуты"
    PERFORMER "Валерий Леонтьев"
    INDEX 00 03:49:33
FILE "14 - Валерий Леонтьев - Три минуты.wav" WAVE
    INDEX 01 00:00:00
  TRACK 15 AUDIO
    TITLE "Муза"
    PERFORMER "Валерий Леонтьев"
    INDEX 00 04:05:63
FILE "15 - Валерий Леонтьев - Муза.wav" WAVE
    INDEX 01 00:00:00
  TRACK 16 AUDIO
    TITLE "Затмение сердца"
    PERFORMER "Валерий Леонтьев"
    INDEX 00 03:42:35
FILE "16 - Валерий Леонтьев - Затмение сердца.wav" WAVE
    INDEX 01 00:00:00

Этот торрент недоступен для скачивания без регистрации, однако доступен по публичной magnet-ссылке (источники с публичных трекеров). Перед использованием ссылки прочтите, пожалуйста Пользовательское соглашение, а также как можно дольше оставайтесь на раздаче! Для того, чтобы скачать сам торрент-файл (который видит больше источников), а также для того, чтобы поблагодарить релизера, вам необходимо зарегистрироваться. Если регистрироваться лень - вы можете также попробовать скачать релиз по нашим партнерским ссылкам ниже.

[underverse.su].t67851.torrent
Трекер: Зарегистрирован   [ 06.07.2016 18:17 ]  

Статус: проверено (by Бишеп at 06.07.2016 18:17)
Поблагодарили: пока никто не поблагодарил...
Тип торрента: публичный - доступные источники с открытых трекеров: 
Размер: 383 MB (занимает 0,09 DVDR, для записи нужно 1 болванка DVDR/RW)
 
 
Похожие темы
Форум Тема Автор Торрент Отв. Посл. сооб.
Сборники Pop, Disco, Dance (Pop) VA - Ураган хитов (2009) [MP3, 128 kbps] БогDan
0 | 0

1 | 2362

22

02.07.2009 19:05

Сборники Pop, Disco, Dance (Pop) VA - Авторадио дискотека - 80х (2007) [MP3,128 kbps] Алексей 25
2 | 1

2 | 2561

57

07.02.2014 19:10

Сборники Pop, Disco, Dance (Pop) VA - Все новинки этого года (2011) [MP3, 256 kbps] МУХА~
0 | 0

0 | 1194

11

23.02.2011 18:18

Сборники Pop, Disco, Dance (Pop) VA - Eurovision Song Contest Dusseldorf 2011 (2 CD) (2011) [MP3, CBR 192 kbps] ZondeR
0 | 0

1 | 905

3

19.09.2011 13:33

Сборники Pop, Disco, Dance (Pop) VA - Супер ДискотЭка 90-х from AGR (2011) [MP3, 320 kbps] Dark6120
0 | 0

1 | 1251

20

19.09.2011 12:15

Сборники Pop, Disco, Dance (Pop) VA - Лучшая 100-ка Ретро-FM: Золотые хиты 80-х 50/50 (2011) [MP3, 256 kbps] 90ytr90
5 | 0

0 | 1642

75

12.12.2012 14:58

Сборники Pop, Disco, Dance (Pop) VA - Лучшая русская 100-ка Super новинок 15 (2012) [MP3, 256 kbps] 90ytr90
0 | 0

0 | 1232

21

12.12.2012 15:46

Сборники Pop, Disco, Dance (Pop) VA - Новое и лучшее: Топ сборник 3 (2012) [MP3, 256 kbps] 90ytr90
0 | 0

0 | 1216

20

12.12.2012 16:16

Сборники Pop, Disco, Dance (Pop) VA - Зимний Хит (2012) [MP3, 256 kbps] 90ytr90
0 | 0

1 | 1566

19

16.12.2012 11:57

Сборники Pop, Disco, Dance (Pop) VA - Зимняя дискотека в стиле ретро (2012) [MP3, 256 kbps] 90ytr90
1 | 0

0 | 1925

44

16.12.2012 10:28


Яндекс.Метрика powered by Sphinx


В Н И М А Н И Е
Сайт не распространяет и не хранит электронные версии произведений, а лишь бесплатно и без коммерческой выгоды (не требуя взамен платы,
SMS и т.д.) предоставляет доступ к создаваемому пользователями каталогу ссылок на торрент-файлы, которые содержат только списки хеш-сумм.
Убедительная просьба с жалобами обращаться напрямую к пользователю, разместившему торрент файл.

Вверх