Loading...
Error

Рэтчет и Кланк: Галактические рейнджеры / Ratchet & Clank (Кевин Манро, Джерика Клилэнд) [2016 г., мультфильм, фантастика, боевик, комедия, приключения, WEB-DL 1080p] Dub (iTunes)

Статистика раздачи
Размер:  3,23 GB   |    Зарегистрирован:  1 год 11 месяцев   |    Скачан:  9 раз

Полного источника не было: 1 день

Сидов:  0  |  0 KB/s  ]   Личеров:  0  |  0 KB/s  ]

* - сиды/пиры с внешних источников

   
 
Автор Сообщение

makkol Пол:Муж

04-Июн-2016 12:59

Р этчет и Кланк: Галактические рейнджеры / Ratchet & Clank


Год выпуска: 2016
Жанр: мультфильм, фантастика, боевик, комедия, приключения
Производство: Гонконг , Канада , США [Aperture Media Partners, Blockade Entertainment, CNHK Media]
Режиссер: Кевин Манро, Джерика Клилэнд
Роли озвучивали: Джеймс Арнольд Тейлор, Дэвид Кэй, Джим Уорд, Йен Джеймс Корлетт, Эндрю Каунден, Розарио Доусон, Брайан Добсон, Брайан Драммонд, Пол Джаматти
Сюжет фильма:
Большеухий ловкач Рэтчет всегда мечтал присоединиться к Галактическим космическим рейнджерам, но самовлюбленный супергерой Капитан Кварк не принимает его в команду. И все же, когда робот Кланк приносит весть о коварном плане злодея Дрека из расы Блэрг создать новую планету для своего вида, предварительно избавившись от рейнджеров и уничтожив Солнечную систему, миссия по спасению галактики ложится именно на пушистые плечи остряка Рэтчета. А металлический Кланк становится его верным спутником и помощником.

  • Мировая премьера: 13 апреля 2016
  • Российская премьера: 5 мая 2016


Качество видео: WEB-DL 1080p

Продолжительность: 01:33:51
Формат: MKV
Видео: MPEG-4 AVC, 1920x804 (2.40:1), 24.000 fps, 4544 kbps
Аудио: русский, дублированный (iTunes), AC3 5.1, 48 kHz, 384 kbps

Код:

Формат                                   : Matroska
Версия формата                           : Version 2
Размер файла                             : 3,23 Гбайт
Продолжительность                        : 1 ч. 33 м.
Общий поток                              : 4930 Кбит/сек
Дата кодирования                         : UTC 2016-06-01 19:44:44
Программа кодирования                    : mkvmerge v8.3.0 ('Over the Horizon') 64bit
Библиотека кодирования                   : libebml v1.3.1 + libmatroska v1.4.2

Видео
Идентификатор                            : 1
Формат                                   : AVC
Формат/Информация                        : Advanced Video Codec
Профиль формата                          : High@L4
Параметр CABAC формата                   : Да
Параметр ReFrames формата                : 5 кадров
Идентификатор кодека                     : V_MPEG4/ISO/AVC
Продолжительность                        : 1 ч. 33 м.
Битрейт                                  : 4544 Кбит/сек
Ширина                                   : 1920 пикселей
Высота                                   : 804 пикселя
Соотношение сторон                       : 2,40:1
Режим частоты кадров                     : Постоянный
Частота кадров                           : 24,000 кадра/сек
Цветовое пространство                    : YUV
Субдискретизация насыщенности            : 4:2:0
Битовая глубина                          : 8 бит
Тип развёртки                            : Прогрессивная
Бит/(Пиксели*Кадры)                      : 0.123
Размер потока                            : 2,98 Гбайт (92%)
Язык                                     : English
Default                                  : Да
Forced                                   : Нет
Цветовой диапазон                        : Limited
Основные цвета                           : BT.709
Характеристики трансфера                 : BT.709
Коэффициенты матрицы                     : BT.709

Аудио
Идентификатор                            : 2
Формат                                   : AC-3
Формат/Информация                        : Audio Coding 3
Расширение режима                        : CM (complete main)
Параметр Endianness формата              : Big
Идентификатор кодека                     : A_AC3
Продолжительность                        : 1 ч. 33 м.
Вид битрейта                             : Постоянный
Битрейт                                  : 384 Кбит/сек
Каналы                                   : 6 каналов
Расположение каналов                     : Front: L C R, Side: L R, LFE
Частота                                  : 48,0 КГц
Частота кадров                           : 31,250 кадров/сек (1536 spf)
Метод сжатия                             : С потерями
Размер потока                            : 258 Мбайт (8%)
Язык                                     : Russian
Default                                  : Да
Forced                                   : Нет

Меню
00:00:00.000                             : en:Глава 1
00:05:49.958                             : en:Глава 2
00:11:17.166                             : en:Глава 3
00:17:28.166                             : en:Глава 4
00:23:30.666                             : en:Глава 5
00:29:32.416                             : en:Глава 6
00:36:10.249                             : en:Глава 7
00:41:41.124                             : en:Глава 8
00:47:24.124                             : en:Глава 9
00:52:57.499                             : en:Глава 10
00:58:43.332                             : en:Глава 11
01:04:17.665                             : en:Глава 12
01:09:45.373                             : en:Глава 13
01:15:52.706                             : en:Глава 14
01:21:20.706                             : en:Глава 15
picpicpicpicpic
Для увеличения картинки щелкните мышкой по превью

Этот торрент недоступен для скачивания без регистрации, однако доступен по публичной magnet-ссылке (источники с публичных трекеров). Перед использованием ссылки прочтите, пожалуйста Пользовательское соглашение, а также как можно дольше оставайтесь на раздаче! Для того, чтобы скачать сам торрент-файл (который видит больше источников), а также для того, чтобы поблагодарить релизера, вам необходимо зарегистрироваться. Если регистрироваться лень - вы можете также попробовать скачать релиз по нашим партнерским ссылкам ниже. Кроме того, зарегистрированным пользователям не показывается всплывающая реклама при скачивании.

[underverse.su].t66832.torrent
Трекер: Зарегистрирован   [ 04.06.2016 12:59 ]  

Статус: T временная (by makkol at 04.06.2016 15:42)
Поблагодарили: 1 человек
Тип торрента: публичный - доступные источники с открытых трекеров: 
Размер: 3,23 GB (занимает 0,74 DVDR, для записи нужно 1 болванка DVDR/RW)
 
 
Похожие темы
Форум Тема Автор Торрент Отв. Посл. сооб.
T Зарубежные мультфильмы Рэтчет и Кланк: Галактические рейнджеры / Ratchet & Clank (Кевин Манро / Kevin Munroe, Джерика Клилэнд / Jericca Cleland) [2016 г., мультфильм, фантастика, боевик, комедия, приключения,... 90ytr90
3 | 1

0 | 437

5

14.11.2016 14:19

T Зарубежные мультфильмы Рэтчет и Кланк: Галактические рейнджеры / Ratchet & Clank (Кевин Манро / Kevin Munroe, Джерика Клилэнд / Jericca Cleland) [2016 г., мультфильм, фантастика, боевик, комедия, приключения,... 90ytr90
202 | 0

0 | 1318

32

02.06.2016 10:11

T Зарубежные мультфильмы Рэтчет и Кланк: Галактические рейнджеры / Ratchet & Clank (Кевин Манро / Kevin Munroe, Джерика Клилэнд / Jericca Cleland) [2016 г., мультфильм, фантастика, боевик, комедия, приключения, BDRip]... 90ytr90
0 | 0

0 | 590

6

26.08.2016 17:05

T Мультфильмы [HDDVDRip / BDRip / WEB-DL / HDTV 1080/720р] Рэтчет и Кланк: Галактические рейнджеры / Ratchet & Clank (Кевин Манро / Kevin Munroe, Джерика Клилэнд / Jericca Cleland) [2016 г., мультфильм, фантастика, боевик, комедия, приключения, BDRip... 90ytr90
2 | 0

0 | 441

3

14.11.2016 14:42

T Мультфильмы [HDDVDRip / BDRip / WEB-DL / HDTV 1080/720р] Рэтчет и Кланк: Галактические рейнджеры / Ratchet & Clank (Кевин Манро / Kevin Munroe, Джерика Клилэнд / Jericca Cleland) [2016 г., мультфильм, фантастика, боевик, комедия, приключения, BDRip... 90ytr90
14 | 0

0 | 428

0

14.11.2016 14:32

T Мультфильмы [HDDVDRip / BDRip / WEB-DL / HDTV 1080/720р] Рэтчет и Кланк: Галактические рейнджеры / Ratchet & Clank (Кевин Манро / Kevin Munroe, Джерика Клилэнд / Jericca Cleland) [2016 г., мультфильм, фантастика, боевик, комедия, приключения, WEB-DL... 90ytr90
27 | 0

0 | 1181

12

02.06.2016 10:15


Яндекс.Метрика powered by Sphinx


В Н И М А Н И Е
Сайт не распространяет и не хранит электронные версии произведений, а лишь бесплатно и без коммерческой выгоды (не требуя взамен платы,
SMS и т.д.) предоставляет доступ к создаваемому пользователями каталогу ссылок на торрент-файлы, которые содержат только списки хеш-сумм.
Убедительная просьба с жалобами обращаться напрямую к пользователю, разместившему торрент файл.

Вверх