Loading...
Error

Украина. Маски революции / Ukraine the masks of the revolution (Поль Морейра) [2016 г., документальный, WEB-DLRip]

Статистика раздачи
Размер:  1,37 GB   |    Зарегистрирован:  1 год 9 месяцев   |    Скачан:  125 раз
Сидов:  1  |  0 KB/s  ]   Личеров:  0  |  0 KB/s  ]

* - сиды/пиры с внешних источников

   
 
Автор Сообщение

Паукан Пол:Муж

04-Фев-2016 17:53

Украина. Маски революции / Ukraine the masks of the revolution (2016) WEB-DLRip

Телекомпания: Франция, Canal+
Жанр: Документальный

Режиссер: Поль Морейра

Описание:
Документальный проект Украина: маски революции транслировался на французском телеканале Canal+. Украинское посольство в Париже просило отказаться от трансляции фильма во Франции. Но чего так боятся власти Украины? Может быть, правды? Ведь до сих пор Европа не знает всего того, что на самом деле происходило и продолжает происходить как в Киеве, так и во всей стране в целом. Вместо фильма Маски революции представители украинского посольства во Франции предложили телевизионщикам показать по ТВ свою версию происходящего, в которой наспех собраны фрагменты шаблонной пропаганды, которыми забиты под самую завязку украинские телеканалы. Премьера документального фильма, снятого режиссером Морейра, прошла 1 февраля 2016 года. Сюжет рассказывает о тех трагических событиях, которые произошли в Одессе: пожар в Доме Профсоюзов и сожжение около 40 человек (по официальным данным) и более 300 (по неофицальным источникам). Режиссер, рассказывая о съемках фильмах говорит, что его целью было показать всему миру кровавую историю Украины и Одессы в частности. "В самом центре Европы сжигают заживо людей и все об этом молчат."


Продолжительность: 00:54:31
Качество видео: WEB-DLRip

Перевод: Одноголосый закадровый, профессиональный (© ЗАО Редакция газеты «Московский Комсомолец»)

Видео: AVC/H.264, 1920x1080, ~3142 Кбит/сек
Аудио#1: AC3, 2 ch, 192 Кбит/c, CBR (Русский)
Аудио#2: AC3, 2 ch, 192 Кбит/c, CBR (Французский)

Код:

Общее
Уникальный идентификатор                 : 213952122663166580147456436662132636540 (0xA0F5AE128742A58499107B2513CD7B7C)
Полное имя                               : F:\видео\фильмы\Maski.Revoljucii.2016.P1.1080p.mkv
Формат                                   : Matroska
Версия формата                           : Version 4 / Version 2
Размер файла                             : 1,37 Гбайт
Продолжительность                        : 54 м.
Общий поток                              : 3598 Кбит/сек
Дата кодирования                         : UTC 2016-02-04 07:00:02
Программа кодирования                    : mkvmerge v6.7.0 ('Back to the Ground') 64bit built on Jan  8 2014 15:10:52
Библиотека кодирования                   : libebml v1.3.0 + libmatroska v1.4.1

Видео
Идентификатор                            : 1
Формат                                   : AVC
Формат/Информация                        : Advanced Video Codec
Профиль формата                          : High@L4
Параметр CABAC формата                   : Да
Параметр ReFrames формата                : 2 кадра
Идентификатор кодека                     : V_MPEG4/ISO/AVC
Продолжительность                        : 54 м.
Битрейт                                  : 3142 Кбит/сек
Ширина                                   : 1920 пикселей
Высота                                   : 1080 пикселей
Соотношение сторон                       : 16:9
Режим частоты кадров                     : Постоянный
Частота кадров                           : 25,000 кадров/сек
Цветовое пространство                    : YUV
Субдискретизация насыщенности            : 4:2:0
Битовая глубина                          : 8 бит
Тип развёртки                            : Прогрессивная
Бит/(Пиксели*Кадры)                      : 0.061
Размер потока                            : 1,20 Гбайт (87%)
Default                                  : Да
Forced                                   : Нет
Цветовой диапазон                        : Limited
Основные цвета                           : BT.709
Характеристики трансфера                 : BT.709
Коэффициенты матрицы                     : BT.709

Аудио #1
Идентификатор                            : 2
Формат                                   : AC-3
Формат/Информация                        : Audio Coding 3
Расширение режима                        : CM (complete main)
Параметр Endianness формата              : Big
Идентификатор кодека                     : A_AC3
Продолжительность                        : 54 м.
Вид битрейта                             : Постоянный
Битрейт                                  : 192 Кбит/сек
Каналы                                   : 2 канала
Расположение каналов                     : Front: L R
Частота                                  : 44,1 КГц
Частота кадров                           : 28,711 кадров/сек (1536 spf)
Метод сжатия                             : С потерями
Размер потока                            : 75,0 Мбайт (5%)
Default                                  : Да
Forced                                   : Нет

Аудио #2
Идентификатор                            : 3
Формат                                   : AC-3
Формат/Информация                        : Audio Coding 3
Расширение режима                        : CM (complete main)
Параметр Endianness формата              : Big
Идентификатор кодека                     : A_AC3
Продолжительность                        : 54 м.
Вид битрейта                             : Постоянный
Битрейт                                  : 192 Кбит/сек
Каналы                                   : 2 канала
Расположение каналов                     : Front: L R
Частота                                  : 48,0 КГц
Частота кадров                           : 31,250 кадров/сек (1536 spf)
Метод сжатия                             : С потерями
Размер потока                            : 75,0 Мбайт (5%)
Default                                  : Нет
Forced                                   : Нет

pic pic pic
Для увеличения картинки щелкните мышкой по превью

Этот торрент недоступен для скачивания без регистрации, однако доступен по публичной magnet-ссылке (источники с публичных трекеров). Перед использованием ссылки прочтите, пожалуйста Пользовательское соглашение, а также как можно дольше оставайтесь на раздаче! Для того, чтобы скачать сам торрент-файл (который видит больше источников), а также для того, чтобы поблагодарить релизера, вам необходимо зарегистрироваться. Если регистрироваться лень - вы можете также попробовать скачать релиз по нашим партнерским ссылкам ниже.

[underverse.su].t62699.torrent
Трекер: Зарегистрирован   [ 04.02.2016 17:55 ]  

Статус: проверено (by Паукан at 04.02.2016 17:55)
Поблагодарили: 17 человек
Тип торрента: публичный - доступные источники с открытых трекеров: 
Размер: 1,37 GB (занимает 0,31 DVDR, для записи нужно 1 болванка DVDR/RW)
 
 
Похожие темы
Форум Тема Автор Торрент Отв. Посл. сооб.
* Исторические фильмы Украина. Маски Революции. / Ukraine Les Masques De La Revolution (Поль Морейра / Paul Moreira) [2016 г., документальный, WEBRip] VO + Original (Fre) 90ytr90
21 | 0

4 | 1817

136

11.02.2016 21:51


Яндекс.Метрика powered by Sphinx


В Н И М А Н И Е
Сайт не распространяет и не хранит электронные версии произведений, а лишь бесплатно и без коммерческой выгоды (не требуя взамен платы,
SMS и т.д.) предоставляет доступ к создаваемому пользователями каталогу ссылок на торрент-файлы, которые содержат только списки хеш-сумм.
Убедительная просьба с жалобами обращаться напрямую к пользователю, разместившему торрент файл.

Вверх