Loading...
Error

(Europop, Latin, Afro-Cuban) VA - Top Latino 2000 (2000) [FLAC (Tracks+.CUE), Lossless]

Статистика раздачи
Размер:  440 MB   |    Зарегистрирован:  1 год 8 месяцев   |    Скачан:  2 раза

Полного источника не было: 2 месяца 10 дней

Сидов:  0  |  0 KB/s  ]   Личеров:  0  |  0 KB/s  ]

* - сиды/пиры с внешних источников

   
 
Автор Сообщение

Бишеп Пол:Муж

01-Фев-2016 17:30

VA - Top Latino 2000

Жанр: Europop, Latin, Afro-Cuban
Год выпуска: 2000
Источник: CD
Производитель диска: Columbia – 500599 2
Аудиокодек: FLAC
Тип рипа: Tracks+.CUE
Битрейт аудио: lossless
Продолжительность: 00:59:53


Треклист:
01. Gloria Estefan - No Me Dejes De Querer
02. Chayanne - Boom Boom
03. Ricky Martin - La Diosa Del Carnaval (Spanish Eyes)
04. Azucar Moreno - Mamma Mía
05. Shakira - Ojos Así
06. Son by Four - A Puro Dolor
07. Marc Anthony - Dímelo
08. Jennifer Lopez - Una Noche Mas
09. Monica Naranjo - Sobrevivire
10. Jon Secada - Así (Tropical Mix Edit)
11. Elvis Crespo - Mas Que Una Caricia
12. Azul Azul - La Bomba
13. Paola & Chiara - Vamos A Bailar (Esta Vida Nueva)
14. OV7 - Enloqueceme
15. MDO - No Puedo Olvidar

Код:

Exact Audio Copy V1.1 from 23. June 2015

EAC extraction logfile from 16. January 2016, 13:12

Various Artists / Top Latino 2000

Used drive  : ASUS    BW-12D1S-U   Adapter: 1  ID: 1

Read mode               : Secure
Utilize accurate stream : Yes
Defeat audio cache      : Yes
Make use of C2 pointers : No

Read offset correction                      : 667
Overread into Lead-In and Lead-Out          : No
Fill up missing offset samples with silence : Yes
Delete leading and trailing silent blocks   : No
Null samples used in CRC calculations       : Yes
Used interface                              : Native Win32 interface for Win NT & 2000
Gap handling                                : Appended to previous track

Used output format              : User Defined Encoder
Selected bitrate                : 768 kBit/s
Quality                         : High
Add ID3 tag                     : No
Command line compressor         : D:\Program Files (x86)\Exact Audio Copy\Flac\flac.exe
Additional command line options : -8 -V -T "TITLE=%title%" -T "ARTIST=%artist%" -T "ALBUMARTIST=%albumartist%" -T "ALBUM=%albumtitle%" -T "DATE=%year%" -T "TRACKNUMBER=%tracknr%" -T "TRACKTOTAL=%numtracks%" -T "GENRE=%genre%" -T "COMMENT=%comment%" -T "PERFORMER=%albuminterpret%" -T "COMPOSER=%composer%" %source% -o %dest%

TOC of the extracted CD

     Track |   Start  |  Length  | Start sector | End sector
    ---------------------------------------------------------
        1  |  0:00.00 |  3:27.00 |         0    |    15524   
        2  |  3:27.00 |  4:04.00 |     15525    |    33824   
        3  |  7:31.00 |  4:25.10 |     33825    |    53709   
        4  | 11:56.10 |  4:16.55 |     53710    |    72964   
        5  | 16:12.65 |  3:56.60 |     72965    |    90724   
        6  | 20:09.50 |  3:32.12 |     90725    |   106636   
        7  | 23:41.62 |  3:49.00 |    106637    |   123811   
        8  | 27:30.62 |  4:06.65 |    123812    |   142326   
        9  | 31:37.52 |  4:56.63 |    142327    |   164589   
       10  | 36:34.40 |  4:31.32 |    164590    |   184946   
       11  | 41:05.72 |  4:04.43 |    184947    |   203289   
       12  | 45:10.40 |  2:04.47 |    203290    |   212636   
       13  | 47:15.12 |  3:59.03 |    212637    |   230564   
       14  | 51:14.15 |  4:11.05 |    230565    |   249394   
       15  | 55:25.20 |  4:28.20 |    249395    |   269514   

Track  1

     Filename D:\Video&Music&Books\2000 - Top Latino 2000\01 No me dejes de querer.wav

     Pre-gap length  0:00:02.00

     Peak level 99.9 %
     Extraction speed 4.2 X
     Track quality 100.0 %
     Test CRC 4767CADB
     Copy CRC 4767CADB
     Cannot be verified as accurate (confidence 2)  [B40A3C65], AccurateRip returned [B985BB92]  (AR v2)
     Copy OK

Track  2

     Filename D:\Video&Music&Books\2000 - Top Latino 2000\02 La diosa del carnaval (Spanish Eyes).wav

     Pre-gap length  0:00:01.43

     Peak level 100.0 %
     Extraction speed 4.2 X
     Track quality 99.9 %
     Test CRC C5D52B10
     Copy CRC C5D52B10
     Cannot be verified as accurate (confidence 1)  [5B4F6D73], AccurateRip returned [1652622C]  (AR v2)
     Copy OK

Track  3

     Filename D:\Video&Music&Books\2000 - Top Latino 2000\03 Boom boom.wav

     Pre-gap length  0:00:01.40

     Peak level 89.0 %
     Extraction speed 5.2 X
     Track quality 100.0 %
     Test CRC C2D2BFCC
     Copy CRC C2D2BFCC
     Cannot be verified as accurate (confidence 2)  [1D1B22D6], AccurateRip returned [A84A6EAB]  (AR v2)
     Copy OK

Track  4

     Filename D:\Video&Music&Books\2000 - Top Latino 2000\04 Mamma mía.wav

     Pre-gap length  0:00:01.40

     Peak level 99.9 %
     Extraction speed 5.5 X
     Track quality 100.0 %
     Test CRC CACFFA4E
     Copy CRC CACFFA4E
     Cannot be verified as accurate (confidence 1)  [1E71EF60], AccurateRip returned [C8B69220]  (AR v2)
     Copy OK

Track  5

     Filename D:\Video&Music&Books\2000 - Top Latino 2000\05 Ojos así.wav

     Pre-gap length  0:00:01.43

     Peak level 100.0 %
     Extraction speed 5.8 X
     Track quality 100.0 %
     Test CRC B65271D9
     Copy CRC B65271D9
     Cannot be verified as accurate (confidence 2)  [D600C0DC], AccurateRip returned [C5E38EDC]  (AR v2)
     Copy OK

Track  6

     Filename D:\Video&Music&Books\2000 - Top Latino 2000\06 A puro dolor.wav

     Pre-gap length  0:00:01.40

     Peak level 100.0 %
     Extraction speed 5.2 X
     Track quality 99.9 %
     Test CRC 1F66C5D8
     Copy CRC 1F66C5D8
     Cannot be verified as accurate (confidence 1)  [42E7581D], AccurateRip returned [2D644E08]  (AR v2)
     Copy OK

Track  7

     Filename D:\Video&Music&Books\2000 - Top Latino 2000\07 Dímelo.wav

     Pre-gap length  0:00:01.42

     Peak level 97.7 %
     Extraction speed 6.2 X
     Track quality 100.0 %
     Test CRC E22B2DF7
     Copy CRC E22B2DF7
     Cannot be verified as accurate (confidence 2)  [CA8BF330], AccurateRip returned [3F53CFF3]  (AR v2)
     Copy OK

Track  8

     Filename D:\Video&Music&Books\2000 - Top Latino 2000\08 Una noche mas.wav

     Pre-gap length  0:00:01.42

     Peak level 99.9 %
     Extraction speed 6.5 X
     Track quality 100.0 %
     Test CRC BBBC4CBC
     Copy CRC BBBC4CBC
     Cannot be verified as accurate (confidence 2)  [9F3BC8BD], AccurateRip returned [8AD051C3]  (AR v2)
     Copy OK

Track  9

     Filename D:\Video&Music&Books\2000 - Top Latino 2000\09 Sobrevivire.wav

     Pre-gap length  0:00:01.42

     Peak level 99.9 %
     Extraction speed 6.8 X
     Track quality 100.0 %
     Test CRC 573A5EAC
     Copy CRC 573A5EAC
     Cannot be verified as accurate (confidence 1)  [E3666B11], AccurateRip returned [FA30E138]  (AR v2)
     Copy OK

Track 10

     Filename D:\Video&Music&Books\2000 - Top Latino 2000\10 Así (Tropical Mix edit).wav

     Pre-gap length  0:00:01.40

     Peak level 98.4 %
     Extraction speed 7.1 X
     Track quality 100.0 %
     Test CRC DBD579EC
     Copy CRC DBD579EC
     Cannot be verified as accurate (confidence 1)  [EE0FAC75], AccurateRip returned [A135F460]  (AR v2)
     Copy OK

Track 11

     Filename D:\Video&Music&Books\2000 - Top Latino 2000\11 Mas que una caricia.wav

     Pre-gap length  0:00:01.67

     Peak level 100.0 %
     Extraction speed 7.1 X
     Track quality 100.0 %
     Test CRC EA73B33E
     Copy CRC EA73B33E
     Cannot be verified as accurate (confidence 1)  [145C5C46], AccurateRip returned [9C911346]  (AR v2)
     Copy OK

Track 12

     Filename D:\Video&Music&Books\2000 - Top Latino 2000\12 La bomba.wav

     Pre-gap length  0:00:01.58

     Peak level 99.9 %
     Extraction speed 6.4 X
     Track quality 100.0 %
     Test CRC 8E0E4EA2
     Copy CRC 8E0E4EA2
     Cannot be verified as accurate (confidence 1)  [50AB03F9], AccurateRip returned [9A32BCD6]  (AR v2)
     Copy OK

Track 13

     Filename D:\Video&Music&Books\2000 - Top Latino 2000\13 Vamos a bailar (Esta vida nueva).wav

     Pre-gap length  0:00:01.42

     Peak level 100.0 %
     Extraction speed 6.5 X
     Track quality 99.9 %
     Test CRC 88FB1F3C
     Copy CRC 88FB1F3C
     Cannot be verified as accurate (confidence 1)  [82138125], AccurateRip returned [53862A18]  (AR v2)
     Copy OK

Track 14

     Filename D:\Video&Music&Books\2000 - Top Latino 2000\14 Enloqueceme.wav

     Pre-gap length  0:00:01.58

     Peak level 93.9 %
     Extraction speed 7.6 X
     Track quality 100.0 %
     Test CRC B60899E9
     Copy CRC B60899E9
     Cannot be verified as accurate (confidence 1)  [F6BEDB95], AccurateRip returned [6273D7E0]  (AR v2)
     Copy OK

Track 15

     Filename D:\Video&Music&Books\2000 - Top Latino 2000\15 No puedo olvidar.wav

     Pre-gap length  0:00:01.40

     Peak level 99.9 %
     Extraction speed 6.9 X
     Track quality 99.9 %
     Test CRC 8808F12F
     Copy CRC 8808F12F
     Cannot be verified as accurate (confidence 1)  [C06FB5F4], AccurateRip returned [70F412F6]  (AR v2)
     Copy OK

No tracks could be verified as accurate
You may have a different pressing from the one(s) in the database

No errors occurred

End of status report

---- CUETools DB Plugin V2.1.6

[CTDB TOCID: SbfKJ_98KJMkz5Ygy9.ILXxcjKg-] found
Submit result: SbfKJ_98KJMkz5Ygy9.ILXxcjKg- has been confirmed
Track | CTDB Status
  1   | (4/4) Accurately ripped
  2   | (4/4) Accurately ripped
  3   | (4/4) Accurately ripped
  4   | (4/4) Accurately ripped
  5   | (4/4) Accurately ripped
  6   | (4/4) Accurately ripped
  7   | (4/4) Accurately ripped
  8   | (4/4) Accurately ripped
  9   | (4/4) Accurately ripped
 10   | (4/4) Accurately ripped
 11   | (4/4) Accurately ripped
 12   | (4/4) Accurately ripped
 13   | (4/4) Accurately ripped
 14   | (4/4) Accurately ripped
 15   | (4/4) Accurately ripped

==== Log checksum 47EEF07BD0E7FF0298F6FCFE55BAE4B9AC6DB350045D3D43514549D54E1375FB ====

Код:

REM DATE 2000
REM DISCID D90E090F
REM COMMENT "ExactAudioCopy v1.1"
PERFORMER "Various Artists"
TITLE "Top Latino 2000"
FILE "01 No me dejes de querer.wav" WAVE
  TRACK 01 AUDIO
    TITLE "No me dejes de querer"
    PERFORMER "Gloria Estefan"
    INDEX 01 00:00:00
  TRACK 02 AUDIO
    TITLE "La diosa del carnaval (Spanish Eyes)"
    PERFORMER "Ricky Martin"
    INDEX 00 03:25:32
FILE "02 La diosa del carnaval (Spanish Eyes).wav" WAVE
    INDEX 01 00:00:00
  TRACK 03 AUDIO
    TITLE "Boom boom"
    PERFORMER "Chayanne"
    INDEX 00 04:02:35
FILE "03 Boom boom.wav" WAVE
    INDEX 01 00:00:00
  TRACK 04 AUDIO
    TITLE "Mamma mia"
    PERFORMER "Azucar Moreno"
    INDEX 00 04:23:45
FILE "04 Mamma mia.wav" WAVE
    INDEX 01 00:00:00
  TRACK 05 AUDIO
    TITLE "Ojos asi"
    PERFORMER "Shakira"
    INDEX 00 04:15:12
FILE "05 Ojos asi.wav" WAVE
    INDEX 01 00:00:00
  TRACK 06 AUDIO
    TITLE "A puro dolor"
    PERFORMER "Son by Four"
    INDEX 00 03:55:20
FILE "06 A puro dolor.wav" WAVE
    INDEX 01 00:00:00
  TRACK 07 AUDIO
    TITLE "Dimelo"
    PERFORMER "Marc Anthony"
    INDEX 00 03:30:45
FILE "07 Dimelo.wav" WAVE
    INDEX 01 00:00:00
  TRACK 08 AUDIO
    TITLE "Una noche mas"
    PERFORMER "Jennifer Lopez"
    INDEX 00 03:47:33
FILE "08 Una noche mas.wav" WAVE
    INDEX 01 00:00:00
  TRACK 09 AUDIO
    TITLE "Sobrevivire"
    PERFORMER "Monica Naranjo"
    INDEX 00 04:05:23
FILE "09 Sobrevivire.wav" WAVE
    INDEX 01 00:00:00
  TRACK 10 AUDIO
    TITLE "Asi (Tropical Mix edit)"
    PERFORMER "Jon Secada"
    INDEX 00 04:55:23
FILE "10 Asi (Tropical Mix edit).wav" WAVE
    INDEX 01 00:00:00
  TRACK 11 AUDIO
    TITLE "Mas que una caricia"
    PERFORMER "Elvis Crespo"
    INDEX 00 04:29:40
FILE "11 Mas que una caricia.wav" WAVE
    INDEX 01 00:00:00
  TRACK 12 AUDIO
    TITLE "La bomba"
    PERFORMER "Azul Azul"
    INDEX 00 04:02:60
FILE "12 La bomba.wav" WAVE
    INDEX 01 00:00:00
  TRACK 13 AUDIO
    TITLE "Vamos a bailar (Esta vida nueva)"
    PERFORMER "Paola & Chiara"
    INDEX 00 02:03:05
FILE "13 Vamos a bailar (Esta vida nueva).wav" WAVE
    INDEX 01 00:00:00
  TRACK 14 AUDIO
    TITLE "Enloqueceme"
    PERFORMER "OV7"
    INDEX 00 03:57:20
FILE "14 Enloqueceme.wav" WAVE
    INDEX 01 00:00:00
  TRACK 15 AUDIO
    TITLE "No puedo olvidar"
    PERFORMER "MDO"
    INDEX 00 04:09:40
FILE "15 No puedo olvidar.wav" WAVE
    INDEX 01 00:00:00

Этот торрент недоступен для скачивания без регистрации, однако доступен по публичной magnet-ссылке (источники с публичных трекеров). Перед использованием ссылки прочтите, пожалуйста Пользовательское соглашение, а также как можно дольше оставайтесь на раздаче! Для того, чтобы скачать сам торрент-файл (который видит больше источников), а также для того, чтобы поблагодарить релизера, вам необходимо зарегистрироваться. Если регистрироваться лень - вы можете также попробовать скачать релиз по нашим партнерским ссылкам ниже.

[underverse.su].t62560.torrent
Трекер: Зарегистрирован   [ 01.02.2016 17:30 ]  

Статус: проверено (by Бишеп at 01.02.2016 17:31)
Поблагодарили: пока никто не поблагодарил...
Тип торрента: публичный - доступные источники с открытых трекеров: 
Размер: 440 MB (занимает 0,1 DVDR, для записи нужно 1 болванка DVDR/RW)
 
 
Похожие темы
Форум Тема Автор Торрент Отв. Посл. сооб.
[HQ] Популярная Музыка (Europop, Pop Rock, Synthpop, Disco) Secret Service - Aux Deux Magots (1987) [FLAC (Image+.CUE), Lossless] Бишеп
1 | 0

0 | 1671

10

16.08.2012 16:03

Зарубежная Поп Музыка (Lossless) (Europop, Vocal, Ballad) Backstreet Boys - Very Best 2000 (2000) [FLAC (Tracks+.CUE), Lossless] Бишеп
1 | 0

0 | 857

2

26.11.2014 19:02


Яндекс.Метрика powered by Sphinx


В Н И М А Н И Е
Сайт не распространяет и не хранит электронные версии произведений, а лишь бесплатно и без коммерческой выгоды (не требуя взамен платы,
SMS и т.д.) предоставляет доступ к создаваемому пользователями каталогу ссылок на торрент-файлы, которые содержат только списки хеш-сумм.
Убедительная просьба с жалобами обращаться напрямую к пользователю, разместившему торрент файл.

Вверх