Loading...
Error

(Pop, Folk) VA - Great Spanish Hits (1996) [FLAC (Tracks+.CUE), Lossless]

Статистика раздачи
Размер:  302 MB   |    Зарегистрирован:  1 год 10 месяцев   |    Скачан:  3 раза

Полного источника не было: 24 дня

Сидов:  0  |  0 KB/s  ]   Личеров:  0  |  0 KB/s  ]

* - сиды/пиры с внешних источников

   
 
Автор Сообщение

Бишеп Пол:Муж

29-Янв-2016 12:41

VA - Great Spanish Hits

Жанр: Pop, Folk
Год выпуска: 1996
Источник: CD
Производитель диска: Wise Buy - WB 869212
Аудиокодек: FLAC
Тип рипа: Tracks+.CUE
Битрейт аудио: lossless
Продолжительность: 00:47:48


Треклист:
01. Juanito - Amor de mis amores
02. Juanito - Bamboleo
03. Olivia Valere - Cantinero de Cuba
04. Chico Fuente - La Paloma
05. Chrys Valdez - Pepito
06. Paolina - La lambada
07. Los García - Costa del Sol
08. Bimbo Dance - El Bimbo
09. San Diego - La Bamba
10. San Diego - Nina Bonitas
11. Los Chiquitos - Perfidia
12. San Diego - La Cucaracha
13. Los Chiquitos - El Porompompero
14. Chico Fuente - Solo dire mira Barcelone

Код:

Exact Audio Copy V1.1 from 23. June 2015

EAC extraction logfile from 15. January 2016, 16:36

Various Artists / Great Spanish Hits

Used drive  : ASUS    BW-12D1S-U   Adapter: 1  ID: 1

Read mode               : Secure
Utilize accurate stream : Yes
Defeat audio cache      : Yes
Make use of C2 pointers : No

Read offset correction                      : 667
Overread into Lead-In and Lead-Out          : No
Fill up missing offset samples with silence : Yes
Delete leading and trailing silent blocks   : No
Null samples used in CRC calculations       : Yes
Used interface                              : Native Win32 interface for Win NT & 2000
Gap handling                                : Appended to previous track

Used output format              : User Defined Encoder
Selected bitrate                : 768 kBit/s
Quality                         : High
Add ID3 tag                     : No
Command line compressor         : D:\Program Files (x86)\Exact Audio Copy\Flac\flac.exe
Additional command line options : -8 -V -T "TITLE=%title%" -T "ARTIST=%artist%" -T "ALBUMARTIST=%albumartist%" -T "ALBUM=%albumtitle%" -T "DATE=%year%" -T "TRACKNUMBER=%tracknr%" -T "TRACKTOTAL=%numtracks%" -T "GENRE=%genre%" -T "COMMENT=%comment%" -T "PERFORMER=%albuminterpret%" -T "COMPOSER=%composer%" %source% -o %dest%

TOC of the extracted CD

     Track |   Start  |  Length  | Start sector | End sector
    ---------------------------------------------------------
        1  |  0:00.00 |  3:11.50 |         0    |    14374   
        2  |  3:11.50 |  2:43.50 |     14375    |    26649   
        3  |  5:55.25 |  4:15.00 |     26650    |    45774   
        4  | 10:10.25 |  3:00.73 |     45775    |    59347   
        5  | 13:11.23 |  3:43.27 |     59348    |    76099   
        6  | 16:54.50 |  4:06.40 |     76100    |    94589   
        7  | 21:01.15 |  3:50.28 |     94590    |   111867   
        8  | 24:51.43 |  2:24.45 |    111868    |   122712   
        9  | 27:16.13 |  3:17.60 |    122713    |   137547   
       10  | 30:33.73 |  3:29.20 |    137548    |   153242   
       11  | 34:03.18 |  3:43.42 |    153243    |   170009   
       12  | 37:46.60 |  3:45.45 |    170010    |   186929   
       13  | 41:32.30 |  3:09.45 |    186930    |   201149   
       14  | 44:42.00 |  3:06.38 |    201150    |   215137   

Track  1

     Filename D:\Video&Music&Books\1996 - Great Spanish Hits\01 Amor de mis amores.wav

     Pre-gap length  0:00:02.00

     Peak level 71.4 %
     Extraction speed 4.1 X
     Track quality 100.0 %
     Test CRC CEE1DE90
     Copy CRC CEE1DE90
     Accurately ripped (confidence 1)  [EDDA1275]  (AR v2)
     Copy OK

Track  2

     Filename D:\Video&Music&Books\1996 - Great Spanish Hits\02 Bamboleo.wav

     Peak level 79.3 %
     Extraction speed 3.6 X
     Track quality 99.9 %
     Test CRC CB1D4560
     Copy CRC CB1D4560
     Accurately ripped (confidence 1)  [EC7908CF]  (AR v2)
     Copy OK

Track  3

     Filename D:\Video&Music&Books\1996 - Great Spanish Hits\03 Cantinero de Cuba.wav

     Peak level 63.6 %
     Extraction speed 4.9 X
     Track quality 100.0 %
     Test CRC 8A95EC3B
     Copy CRC 8A95EC3B
     Accurately ripped (confidence 1)  [D6DB3DE1]  (AR v2)
     Copy OK

Track  4

     Filename D:\Video&Music&Books\1996 - Great Spanish Hits\04 La Paloma.wav

     Peak level 83.6 %
     Extraction speed 5.0 X
     Track quality 100.0 %
     Test CRC 81D5F8AA
     Copy CRC 81D5F8AA
     Accurately ripped (confidence 1)  [B75E3215]  (AR v2)
     Copy OK

Track  5

     Filename D:\Video&Music&Books\1996 - Great Spanish Hits\05 Pepito.wav

     Peak level 99.9 %
     Extraction speed 5.4 X
     Track quality 100.0 %
     Test CRC B2F847AD
     Copy CRC B2F847AD
     Accurately ripped (confidence 1)  [5F9DE293]  (AR v2)
     Copy OK

Track  6

     Filename D:\Video&Music&Books\1996 - Great Spanish Hits\06 La lambada.wav

     Peak level 99.9 %
     Extraction speed 5.8 X
     Track quality 100.0 %
     Test CRC 71684BEF
     Copy CRC 71684BEF
     Accurately ripped (confidence 1)  [2FDA9B9E]  (AR v2)
     Copy OK

Track  7

     Filename D:\Video&Music&Books\1996 - Great Spanish Hits\07 Costa del Sol.wav

     Peak level 81.5 %
     Extraction speed 5.3 X
     Track quality 99.9 %
     Test CRC BA091457
     Copy CRC BA091457
     Accurately ripped (confidence 1)  [50F342C5]  (AR v2)
     Copy OK

Track  8

     Filename D:\Video&Music&Books\1996 - Great Spanish Hits\08 El Bimbo.wav

     Peak level 85.8 %
     Extraction speed 5.7 X
     Track quality 100.0 %
     Test CRC 5B2BBF24
     Copy CRC 5B2BBF24
     Accurately ripped (confidence 1)  [BF2185A2]  (AR v2)
     Copy OK

Track  9

     Filename D:\Video&Music&Books\1996 - Great Spanish Hits\09 La Bamba.wav

     Peak level 93.8 %
     Extraction speed 6.3 X
     Track quality 100.0 %
     Test CRC 6B12D03D
     Copy CRC 6B12D03D
     Accurately ripped (confidence 1)  [0D50F93C]  (AR v2)
     Copy OK

Track 10

     Filename D:\Video&Music&Books\1996 - Great Spanish Hits\10 Nina Bonitas.wav

     Peak level 82.8 %
     Extraction speed 6.5 X
     Track quality 100.0 %
     Test CRC 7E78F220
     Copy CRC 7E78F220
     Accurately ripped (confidence 1)  [A97FE9F1]  (AR v2)
     Copy OK

Track 11

     Filename D:\Video&Music&Books\1996 - Great Spanish Hits\11 Perfidia.wav

     Peak level 79.4 %
     Extraction speed 6.7 X
     Track quality 100.0 %
     Test CRC 377C884F
     Copy CRC 377C884F
     Accurately ripped (confidence 1)  [4233784D]  (AR v2)
     Copy OK

Track 12

     Filename D:\Video&Music&Books\1996 - Great Spanish Hits\12 La Cucaracha.wav

     Peak level 70.9 %
     Extraction speed 7.0 X
     Track quality 100.0 %
     Test CRC B653D983
     Copy CRC B653D983
     Accurately ripped (confidence 1)  [08FC63A2]  (AR v2)
     Copy OK

Track 13

     Filename D:\Video&Music&Books\1996 - Great Spanish Hits\13 El Porompompero.wav

     Peak level 70.8 %
     Extraction speed 6.8 X
     Track quality 100.0 %
     Test CRC 98A95796
     Copy CRC 98A95796
     Accurately ripped (confidence 1)  [43276FB7]  (AR v2)
     Copy OK

Track 14

     Filename D:\Video&Music&Books\1996 - Great Spanish Hits\14 Solo dire mira Barcelone.wav

     Peak level 79.8 %
     Extraction speed 6.9 X
     Track quality 100.0 %
     Test CRC E4243CD4
     Copy CRC E4243CD4
     Accurately ripped (confidence 1)  [5D46BC0C]  (AR v2)
     Copy OK

All tracks accurately ripped

No errors occurred

End of status report

---- CUETools DB Plugin V2.1.6

[CTDB TOCID: X3PWIit1FMzOFRB3etFYo3_gV2M-] found
Submit result: X3PWIit1FMzOFRB3etFYo3_gV2M- has been confirmed
Track | CTDB Status
  1   | (2/2) Accurately ripped
  2   | (2/2) Accurately ripped
  3   | (2/2) Accurately ripped
  4   | (2/2) Accurately ripped
  5   | (2/2) Accurately ripped
  6   | (2/2) Accurately ripped
  7   | (2/2) Accurately ripped
  8   | (2/2) Accurately ripped
  9   | (2/2) Accurately ripped
 10   | (2/2) Accurately ripped
 11   | (2/2) Accurately ripped
 12   | (2/2) Accurately ripped
 13   | (2/2) Accurately ripped
 14   | (2/2) Accurately ripped

==== Log checksum 0EEC2F0C0B6553C5E1437AA1795ED33FA3330EE2E0C39EFB967030E9C372AC1E ====

Код:

REM GENRE Folk
REM DATE 1996
REM DISCID C60B340E
REM COMMENT "ExactAudioCopy v1.1"
PERFORMER "Various Artists"
TITLE "Great Spanish Hits"
FILE "01 Amor de mis amores.wav" WAVE
  TRACK 01 AUDIO
    TITLE "Amor de mis amores"
    PERFORMER "Juanito"
    INDEX 01 00:00:00
FILE "02 Bamboleo.wav" WAVE
  TRACK 02 AUDIO
    TITLE "Bamboleo"
    PERFORMER "Juanito"
    INDEX 01 00:00:00
FILE "03 Cantinero de Cuba.wav" WAVE
  TRACK 03 AUDIO
    TITLE "Cantinero de Cuba"
    PERFORMER "Olivia Valere"
    INDEX 01 00:00:00
FILE "04 La Paloma.wav" WAVE
  TRACK 04 AUDIO
    TITLE "La Paloma"
    PERFORMER "Chico Fuente"
    INDEX 01 00:00:00
FILE "05 Pepito.wav" WAVE
  TRACK 05 AUDIO
    TITLE "Pepito"
    PERFORMER "Chrys Valdez"
    INDEX 01 00:00:00
FILE "06 La lambada.wav" WAVE
  TRACK 06 AUDIO
    TITLE "La lambada"
    PERFORMER "Paolina"
    INDEX 01 00:00:00
FILE "07 Costa del Sol.wav" WAVE
  TRACK 07 AUDIO
    TITLE "Costa del Sol"
    PERFORMER "Los Garcia"
    INDEX 01 00:00:00
FILE "08 El Bimbo.wav" WAVE
  TRACK 08 AUDIO
    TITLE "El Bimbo"
    PERFORMER "Bimbo Dance"
    INDEX 01 00:00:00
FILE "09 La Bamba.wav" WAVE
  TRACK 09 AUDIO
    TITLE "La Bamba"
    PERFORMER "San Diego"
    INDEX 01 00:00:00
FILE "10 Nina Bonitas.wav" WAVE
  TRACK 10 AUDIO
    TITLE "Nina Bonitas"
    PERFORMER "San Diego"
    INDEX 01 00:00:00
FILE "11 Perfidia.wav" WAVE
  TRACK 11 AUDIO
    TITLE "Perfidia"
    PERFORMER "Los Chiquitos"
    INDEX 01 00:00:00
FILE "12 La Cucaracha.wav" WAVE
  TRACK 12 AUDIO
    TITLE "La Cucaracha"
    PERFORMER "San Diego"
    INDEX 01 00:00:00
FILE "13 El Porompompero.wav" WAVE
  TRACK 13 AUDIO
    TITLE "El Porompompero"
    PERFORMER "Los Chiquitos"
    INDEX 01 00:00:00
FILE "14 Solo dire mira Barcelone.wav" WAVE
  TRACK 14 AUDIO
    TITLE "Solo dire mira Barcelone"
    PERFORMER "Chico Fuente"
    INDEX 01 00:00:00

Этот торрент недоступен для скачивания без регистрации, однако доступен по публичной magnet-ссылке (источники с публичных трекеров). Перед использованием ссылки прочтите, пожалуйста Пользовательское соглашение, а также как можно дольше оставайтесь на раздаче! Для того, чтобы скачать сам торрент-файл (который видит больше источников), а также для того, чтобы поблагодарить релизера, вам необходимо зарегистрироваться. Если регистрироваться лень - вы можете также попробовать скачать релиз по нашим партнерским ссылкам ниже.

[underverse.su].t62366.torrent
Трекер: Зарегистрирован   [ 29.01.2016 12:41 ]  

Статус: проверено (by Бишеп at 29.01.2016 12:41)
Поблагодарили: пока никто не поблагодарил...
Тип торрента: публичный - доступные источники с открытых трекеров: 
Размер: 302 MB (занимает 0,07 DVDR, для записи нужно 1 болванка DVDR/RW)
 
 
Похожие темы
Форум Тема Автор Торрент Отв. Посл. сооб.
Зарубежная Pop Музыка (Pop, Folk) Nolwenn Leroy - O Filles De L’eau (2012) [MP3, 320 kbps CBR] Jimmy
0 | 0

0 | 889

6

07.12.2012 08:17

Зарубежная Pop Музыка (Pop, Folk, Electronic, House) Tracey Thorn - Tinsel And Lights (2012) [MP3, 320 kbps] 90ytr90
0 | 1

0 | 287

1

11.11.2016 19:44

Зарубежная Pop Музыка (Pop, Folk) Tanita Tikaram - Closer To The People (2016) [MP3, 320 kbps] 90ytr90
10 | 0

0 | 249

1

06.11.2016 10:32

Зарубежная Pop Музыка (Pop, Folk) Yael Naim - Older (2015) [MP3, 320 kbps] 90ytr90
5 | 1

0 | 684

1

18.03.2015 20:52

Зарубежная Pop Музыка (Pop, Folk, Alternative) The Pierces - Creation (Deluxe Edition) (2014) [MP3, 320 kbps] 90ytr90
0 | 0

0 | 607

2

20.03.2015 18:30

Зарубежная Поп Музыка (Lossless) (Pop, Folk, Soft Rock) LeAnn Rimes - The Best of (2004) [FLAC (Tracks+.Cue), Lossless] Бишеп
2 | 2

0 | 577

2

15.11.2016 20:01

Зарубежная Поп Музыка (Lossless) (Pop, Folk) Tanita Tikaram - Closer To The People (2016) [FLAC (Tracks), Lossless] Web Бишеп
5 | 0

0 | 507

3

11.11.2016 20:16

Зарубежная Поп Музыка (Lossless) (Pop, Folk) Tanita Tikaram - Ancient Heart (1988) [FLAC (Tracks+.Cue), Lossless] Бишеп
3 | 0

0 | 436

2

05.11.2016 10:08

Отечественная Поп Музыка (Lossless) (Pop, Folk) Марина Девятова - В лунном сиянии... (2013) [FLAC (Image+.CUE), Lossless] Бишеп
2 | 0

0 | 1378

17

20.01.2014 07:18


Яндекс.Метрика powered by Sphinx


В Н И М А Н И Е
Сайт не распространяет и не хранит электронные версии произведений, а лишь бесплатно и без коммерческой выгоды (не требуя взамен платы,
SMS и т.д.) предоставляет доступ к создаваемому пользователями каталогу ссылок на торрент-файлы, которые содержат только списки хеш-сумм.
Убедительная просьба с жалобами обращаться напрямую к пользователю, разместившему торрент файл.

Вверх