Loading...
Error

(Score) Побег / Prison Break (by Ramin Djawadi) (2007) [FLAC (Tracks+.CUE), lossless]

Статистика раздачи
Размер:  328 MB   |    Зарегистрирован:  2 года 3 месяца   |    Скачан:  2 раза

Полного источника не было: 3 часа

Сидов:  0  |  0 KB/s  ]   Личеров:  0  |  0 KB/s  ]

* - сиды/пиры с внешних источников

   
 
Автор Сообщение

garry Пол:Муж

20-Ноя-2015 15:51

Побег / Prison Break (by Ramin Djawadi)

Жанр: Score
Год выпуска: 2007
Источник: CD
Производитель: Varese Sarabande
Аудиокодек: FLAC
Тип рипа: Tracks+.CUE
Битрейт: lossless
Продолжительность: 01:03:47
01 - Main Titles
02 - Strings of Prisoners
03 - Inking the Plan
04 - Save the Brother's Life
05 - In the Yard
06 - T-Bag's Coming for Dinner
07 - Sucre's Dilemma
08 - Sarah & Michael
09 - Abruzzi is the Ticket
10 - In the Tunnels
11 - Unconditional
12 - Conspiracy
13 - Sarah
14 - C-Note
15 - An In-be-tweener
16 - Prison Break
17 - The Manhunt Begins
18 - Special Agent Mahone
19 - Veronica is Murdered
20 - Linc & LJ
21 - Stand-off
22 - Cat & Mouse
23 - (Classified)
24 - Remorse
25 - Origami
26 - Escape is just the Beginning
27 - Panama
28 - Maricruz
29 - Execution
30 - Trouble in Paradise
31 - Sona
X Lossless Decoder version 20120226 (139.1)

XLD extraction logfile from 2012-03-29 16:53:53 -0700

Djawadi Ramin / Prison Break

Used drive : MATSHITA DVD-R UJ-868 (revision KB19)

Ripper mode : XLD Secure Ripper
Disable audio cache : OK for the drive with a cache less than 1375KiB
Make use of C2 pointers : NO
Read offset correction : 102
Max retry count : 20
Gap status : Analyzed, Appended (except HTOA)

TOC of the extracted CD
Track | Start | Length | Start sector | End sector
---------------------------------------------------------
1 | 00:00:00 | 02:29:57 | 0 | 11231
2 | 02:29:57 | 01:27:63 | 11232 | 17819
3 | 03:57:45 | 02:37:61 | 17820 | 29655
4 | 06:35:31 | 01:52:06 | 29656 | 38061
5 | 08:27:37 | 01:45:54 | 38062 | 45990
6 | 10:13:16 | 01:43:56 | 45991 | 53771
7 | 11:56:72 | 02:26:13 | 53772 | 64734
8 | 14:23:10 | 01:43:52 | 64735 | 72511
9 | 16:06:62 | 01:57:28 | 72512 | 81314
10 | 18:04:15 | 02:56:45 | 81315 | 94559
11 | 21:00:60 | 02:19:44 | 94560 | 105028
12 | 23:20:29 | 02:41:16 | 105029 | 117119
13 | 26:01:45 | 02:44:32 | 117120 | 129451
14 | 28:46:02 | 02:07:46 | 129452 | 139022
15 | 30:53:48 | 03:12:48 | 139023 | 153470
16 | 34:06:21 | 03:33:25 | 153471 | 169470
17 | 37:39:46 | 02:15:21 | 169471 | 179616
18 | 39:54:67 | 01:23:49 | 179617 | 185890
19 | 41:18:41 | 01:49:07 | 185891 | 194072
20 | 43:07:48 | 02:04:55 | 194073 | 203427
21 | 45:12:28 | 01:58:58 | 203428 | 212335
22 | 47:11:11 | 01:33:57 | 212336 | 219367
23 | 48:44:68 | 02:02:70 | 219368 | 228587
24 | 50:47:63 | 02:30:19 | 228588 | 239856
25 | 53:18:07 | 01:03:33 | 239857 | 244614
26 | 54:21:40 | 02:11:19 | 244615 | 254458
27 | 56:32:59 | 01:21:61 | 254459 | 260594
28 | 57:54:45 | 01:09:22 | 260595 | 265791
29 | 59:03:67 | 01:49:33 | 265792 | 273999
30 | 60:53:25 | 01:18:65 | 274000 | 279914
31 | 62:12:15 | 01:35:37 | 279915 | 287076

List of alternate offset correction values
# | Absolute | Relative | Confidence
------------------------------------------
1 | -532 | -634 | 5

AccurateRip Summary
Track 01 : OK (confidence 5, with different offset)
Track 02 : OK (confidence 5, with different offset)
Track 03 : OK (confidence 5, with different offset)
Track 04 : OK (confidence 5, with different offset)
Track 05 : OK (confidence 5, with different offset)
Track 06 : OK (confidence 5, with different offset)
Track 07 : OK (confidence 5, with different offset)
Track 08 : OK (confidence 5, with different offset)
Track 09 : OK (confidence 5, with different offset)
Track 10 : OK (confidence 5, with different offset)
Track 11 : OK (confidence 5, with different offset)
Track 12 : OK (confidence 5, with different offset)
Track 13 : OK (confidence 5, with different offset)
Track 14 : OK (confidence 5, with different offset)
Track 15 : OK (confidence 5, with different offset)
Track 16 : OK (confidence 5, with different offset)
Track 17 : OK (confidence 5, with different offset)
Track 18 : OK (confidence 5, with different offset)
Track 19 : OK (confidence 5, with different offset)
Track 20 : OK (confidence 5, with different offset)
Track 21 : OK (confidence 5, with different offset)
Track 22 : OK (confidence 5, with different offset)
Track 23 : OK (confidence 5, with different offset)
Track 24 : OK (confidence 5, with different offset)
Track 25 : OK (confidence 5, with different offset)
Track 26 : OK (confidence 5, with different offset)
Track 27 : OK (confidence 5, with different offset)
Track 28 : OK (confidence 5, with different offset)
Track 29 : OK (confidence 5, with different offset)
Track 30 : OK (confidence 5, with different offset)
Track 31 : OK (confidence 5, with different offset)
->All tracks accurately ripped.

All Tracks
Album gain : -0.63 dB
Peak : 0.983795
Statistics
Read error : 0
Jitter error (maybe fixed) : 0
Retry sector count : 0
Damaged sector count : 0

Track 01
Filename : /Users/DianaBurnell/Desktop/XLD Outputs/Djawadi Ramin - 2007 - Prison Break [FLAC]/01 Main titles.flac
Pre-gap length : 00:02:00

Track gain : -1.07 dB
Peak : 0.980133
CRC32 hash (test run) : C08D0358
CRC32 hash : C08D0358
CRC32 hash (skip zero) : D833318F
AccurateRip signature : 511B9E0C
->Accurately ripped! (confidence 5)
(matched with the different offset correction value;
calculated using an additional offset of -634;
the signature after correction is: 536F7DA8)
Statistics
Read error : 0
Jitter error (maybe fixed) : 0
Retry sector count : 0
Damaged sector count : 0

Track 02
Filename : /Users/DianaBurnell/Desktop/XLD Outputs/Djawadi Ramin - 2007 - Prison Break [FLAC]/02 Strings of prisoners.flac
Pre-gap length : 00:02:33

Track gain : -0.82 dB
Peak : 0.979187
CRC32 hash (test run) : 43F8C807
CRC32 hash : 43F8C807
CRC32 hash (skip zero) : 5AE76D2A
AccurateRip signature : 4938DFF0
->Accurately ripped! (confidence 5)
(matched with the different offset correction value;
calculated using an additional offset of -634;
the signature after correction is: D2B0F055)
Statistics
Read error : 0
Jitter error (maybe fixed) : 0
Retry sector count : 0
Damaged sector count : 0

Track 03
Filename : /Users/DianaBurnell/Desktop/XLD Outputs/Djawadi Ramin - 2007 - Prison Break [FLAC]/03 Inking the plan.flac
Pre-gap length : 00:02:39

Track gain : 1.12 dB
Peak : 0.867615
CRC32 hash (test run) : 4244E8B8
CRC32 hash : 4244E8B8
CRC32 hash (skip zero) : D9EF3F00
AccurateRip signature : 237D4122
->Accurately ripped! (confidence 5)
(matched with the different offset correction value;
calculated using an additional offset of -634;
the signature after correction is: 44BE5A69)
Statistics
Read error : 0
Jitter error (maybe fixed) : 0
Retry sector count : 0
Damaged sector count : 0

Track 04
Filename : /Users/DianaBurnell/Desktop/XLD Outputs/Djawadi Ramin - 2007 - Prison Break [FLAC]/04 Save the brother's life.flac
Pre-gap length : 00:01:01

Track gain : -3.40 dB
Peak : 0.935181
CRC32 hash (test run) : 0AA51392
CRC32 hash : 0AA51392
CRC32 hash (skip zero) : 5F52C8CA
AccurateRip signature : 4E4FF726
->Accurately ripped! (confidence 5)
(matched with the different offset correction value;
calculated using an additional offset of -634;
the signature after correction is: 50199097)
Statistics
Read error : 0
Jitter error (maybe fixed) : 0
Retry sector count : 0
Damaged sector count : 0

Track 05
Filename : /Users/DianaBurnell/Desktop/XLD Outputs/Djawadi Ramin - 2007 - Prison Break [FLAC]/05 In the yard.flac
Pre-gap length : 00:02:02

Track gain : 0.66 dB
Peak : 0.950989
CRC32 hash (test run) : 0F747801
CRC32 hash : 0F747801
CRC32 hash (skip zero) : 2A3668A5
AccurateRip signature : A5105E38
->Accurately ripped! (confidence 5)
(matched with the different offset correction value;
calculated using an additional offset of -634;
the signature after correction is: 5FDF3818)
Statistics
Read error : 0
Jitter error (maybe fixed) : 0
Retry sector count : 0
Damaged sector count : 0

Track 06
Filename : /Users/DianaBurnell/Desktop/XLD Outputs/Djawadi Ramin - 2007 - Prison Break [FLAC]/06 T-Bag's coming for dinner.flac
Pre-gap length : 00:01:47

Track gain : 1.82 dB
Peak : 0.601624
CRC32 hash (test run) : B1DA67C3
CRC32 hash : B1DA67C3
CRC32 hash (skip zero) : E2BB4EBB
AccurateRip signature : 63D9AFC6
->Accurately ripped! (confidence 5)
(matched with the different offset correction value;
calculated using an additional offset of -634;
the signature after correction is: 9B83B57A)
Statistics
Read error : 0
Jitter error (maybe fixed) : 0
Retry sector count : 0
Damaged sector count : 0

Track 07
Filename : /Users/DianaBurnell/Desktop/XLD Outputs/Djawadi Ramin - 2007 - Prison Break [FLAC]/07 Sucre's dilemma.flac
Pre-gap length : 00:00:69

Track gain : 2.96 dB
Peak : 0.770752
CRC32 hash (test run) : 639B14A5
CRC32 hash : 639B14A5
CRC32 hash (skip zero) : BE8A79B0
AccurateRip signature : 2D28E20A
->Accurately ripped! (confidence 5)
(matched with the different offset correction value;
calculated using an additional offset of -634;
the signature after correction is: 3B06CE09)
Statistics
Read error : 0
Jitter error (maybe fixed) : 0
Retry sector count : 0
Damaged sector count : 0

Track 08
Filename : /Users/DianaBurnell/Desktop/XLD Outputs/Djawadi Ramin - 2007 - Prison Break [FLAC]/08 Sarah & Michael.flac
Pre-gap length : 00:00:71

Track gain : 5.65 dB
Peak : 0.839569
CRC32 hash (test run) : C1A5CB80
CRC32 hash : C1A5CB80
CRC32 hash (skip zero) : D247A18E
AccurateRip signature : BBE50472
->Accurately ripped! (confidence 5)
(matched with the different offset correction value;
calculated using an additional offset of -634;
the signature after correction is: DB934806)
Statistics
Read error : 0
Jitter error (maybe fixed) : 0
Retry sector count : 0
Damaged sector count : 0

Track 09
Filename : /Users/DianaBurnell/Desktop/XLD Outputs/Djawadi Ramin - 2007 - Prison Break [FLAC]/09 Abruzzi is the ticket.flac
Pre-gap length : 00:02:23

Track gain : 8.29 dB
Peak : 0.721863
CRC32 hash (test run) : 72952827
CRC32 hash : 72952827
CRC32 hash (skip zero) : 5E3DB7BF
AccurateRip signature : AC1B8E08
->Accurately ripped! (confidence 5)
(matched with the different offset correction value;
calculated using an additional offset of -634;
the signature after correction is: 4C89320D)
Statistics
Read error : 0
Jitter error (maybe fixed) : 0
Retry sector count : 0
Damaged sector count : 0

Track 10
Filename : /Users/DianaBurnell/Desktop/XLD Outputs/Djawadi Ramin - 2007 - Prison Break [FLAC]/10 In the tunnels.flac
Pre-gap length : 00:01:72

Track gain : 0.19 dB
Peak : 0.877014
CRC32 hash (test run) : DBFDFFA9
CRC32 hash : DBFDFFA9
CRC32 hash (skip zero) : 2684916D
AccurateRip signature : 95A0AFB7
->Accurately ripped! (confidence 5)
(matched with the different offset correction value;
calculated using an additional offset of -634;
the signature after correction is: 5C7C8034)
Statistics
Read error : 0
Jitter error (maybe fixed) : 0
Retry sector count : 0
Damaged sector count : 0

Track 11
Filename : /Users/DianaBurnell/Desktop/XLD Outputs/Djawadi Ramin - 2007 - Prison Break [FLAC]/11 Unconditional.flac
Pre-gap length : 00:01:64

Track gain : 7.40 dB
Peak : 0.361572
CRC32 hash (test run) : 2660812C
CRC32 hash : 2660812C
CRC32 hash (skip zero) : CB16D45B
AccurateRip signature : 84B3564E
->Accurately ripped! (confidence 5)
(matched with the different offset correction value;
calculated using an additional offset of -634;
the signature after correction is: 4F33B639)
Statistics
Read error : 0
Jitter error (maybe fixed) : 0
Retry sector count : 0
Damaged sector count : 0

Track 12
Filename : /Users/DianaBurnell/Desktop/XLD Outputs/Djawadi Ramin - 2007 - Prison Break [FLAC]/12 Conspiracy.flac
Pre-gap length : 00:02:54

Track gain : 5.90 dB
Peak : 0.848083
CRC32 hash (test run) : D64067B0
CRC32 hash : D64067B0
CRC32 hash (skip zero) : 92705965
AccurateRip signature : EF72B8D7
->Accurately ripped! (confidence 5)
(matched with the different offset correction value;
calculated using an additional offset of -634;
the signature after correction is: AE145C25)
Statistics
Read error : 0
Jitter error (maybe fixed) : 0
Retry sector count : 0
Damaged sector count : 0

Track 13
Filename : /Users/DianaBurnell/Desktop/XLD Outputs/Djawadi Ramin - 2007 - Prison Break [FLAC]/13 Sarah.flac
Pre-gap length : 00:02:04

Track gain : 5.05 dB
Peak : 0.787872
CRC32 hash (test run) : D8CFE5E5
CRC32 hash : D8CFE5E5
CRC32 hash (skip zero) : 3ECF6B0C
AccurateRip signature : 1C259EE5
->Accurately ripped! (confidence 5)
(matched with the different offset correction value;
calculated using an additional offset of -634;
the signature after correction is: 11ABF9D2)
Statistics
Read error : 0
Jitter error (maybe fixed) : 0
Retry sector count : 0
Damaged sector count : 0

Track 14
Filename : /Users/DianaBurnell/Desktop/XLD Outputs/Djawadi Ramin - 2007 - Prison Break [FLAC]/14 C-Note.flac
Pre-gap length : 00:01:73

Track gain : 3.74 dB
Peak : 0.682281
CRC32 hash (test run) : 8FDCFC5D
CRC32 hash : 8FDCFC5D
CRC32 hash (skip zero) : 1FFF92E6
AccurateRip signature : C0A7884E
->Accurately ripped! (confidence 5)
(matched with the different offset correction value;
calculated using an additional offset of -634;
the signature after correction is: 2025A070)
Statistics
Read error : 0
Jitter error (maybe fixed) : 0
Retry sector count : 0
Damaged sector count : 0

Track 15
Filename : /Users/DianaBurnell/Desktop/XLD Outputs/Djawadi Ramin - 2007 - Prison Break [FLAC]/15 An In-be-tweener.flac
Pre-gap length : 00:01:73

Track gain : 4.94 dB
Peak : 0.714355
CRC32 hash (test run) : 9ACF6BA3
CRC32 hash : 9ACF6BA3
CRC32 hash (skip zero) : 102665B6
AccurateRip signature : 2C8EFD00
->Accurately ripped! (confidence 5)
(matched with the different offset correction value;
calculated using an additional offset of -634;
the signature after correction is: 9863CA95)
Statistics
Read error : 0
Jitter error (maybe fixed) : 0
Retry sector count : 0
Damaged sector count : 0

Track 16
Filename : /Users/DianaBurnell/Desktop/XLD Outputs/Djawadi Ramin - 2007 - Prison Break [FLAC]/16 Prison Break.flac
Pre-gap length : 00:00:66

Track gain : -2.68 dB
Peak : 0.981750
CRC32 hash (test run) : B375758D
CRC32 hash : B375758D
CRC32 hash (skip zero) : BB845F66
AccurateRip signature : 8D878A70
->Accurately ripped! (confidence 5)
(matched with the different offset correction value;
calculated using an additional offset of -634;
the signature after correction is: FEC53F79)
Statistics
Read error : 0
Jitter error (maybe fixed) : 0
Retry sector count : 0
Damaged sector count : 0

Track 17
Filename : /Users/DianaBurnell/Desktop/XLD Outputs/Djawadi Ramin - 2007 - Prison Break [FLAC]/17 The manhunt begins.flac
Pre-gap length : 00:02:07

Track gain : -3.65 dB
Peak : 0.969238
CRC32 hash (test run) : 8A8AD008
CRC32 hash : 8A8AD008
CRC32 hash (skip zero) : FFB9F1D1
AccurateRip signature : 18C5C51F
->Accurately ripped! (confidence 5)
(matched with the different offset correction value;
calculated using an additional offset of -634;
the signature after correction is: 6F7D519D)
Statistics
Read error : 0
Jitter error (maybe fixed) : 0
Retry sector count : 0
Damaged sector count : 0

Track 18
Filename : /Users/DianaBurnell/Desktop/XLD Outputs/Djawadi Ramin - 2007 - Prison Break [FLAC]/18 Special agent Mahone.flac
Pre-gap length : 00:01:69

Track gain : 0.94 dB
Peak : 0.859711
CRC32 hash (test run) : FACFA811
CRC32 hash : FACFA811
CRC32 hash (skip zero) : 8B1F59AA
AccurateRip signature : 56CE300B
->Accurately ripped! (confidence 5)
(matched with the different offset correction value;
calculated using an additional offset of -634;
the signature after correction is: 0D4D2D17)
Statistics
Read error : 0
Jitter error (maybe fixed) : 0
Retry sector count : 0
Damaged sector count : 0

Track 19
Filename : /Users/DianaBurnell/Desktop/XLD Outputs/Djawadi Ramin - 2007 - Prison Break [FLAC]/19 Veronica is murdered.flac
Pre-gap length : 00:01:53

Track gain : 2.20 dB
Peak : 0.672424
CRC32 hash (test run) : FAF793CD
CRC32 hash : FAF793CD
CRC32 hash (skip zero) : 7EE1554E
AccurateRip signature : 5A31285C
->Accurately ripped! (confidence 5)
(matched with the different offset correction value;
calculated using an additional offset of -634;
the signature after correction is: BECCA6F7)
Statistics
Read error : 0
Jitter error (maybe fixed) : 0
Retry sector count : 0
Damaged sector count : 0

Track 20
Filename : /Users/DianaBurnell/Desktop/XLD Outputs/Djawadi Ramin - 2007 - Prison Break [FLAC]/20 Linc & LJ.flac
Pre-gap length : 00:01:74

Track gain : -0.52 dB
Peak : 0.964203
CRC32 hash (test run) : 3B0E8324
CRC32 hash : 3B0E8324
CRC32 hash (skip zero) : 14057E28
AccurateRip signature : 9AF47309
->Accurately ripped! (confidence 5)
(matched with the different offset correction value;
calculated using an additional offset of -634;
the signature after correction is: 2E8AC9E4)
Statistics
Read error : 0
Jitter error (maybe fixed) : 0
Retry sector count : 0
Damaged sector count : 0

Track 21
Filename : /Users/DianaBurnell/Desktop/XLD Outputs/Djawadi Ramin - 2007 - Prison Break [FLAC]/21 Stand-off.flac
Pre-gap length : 00:01:68

Track gain : -3.50 dB
Peak : 0.983795
CRC32 hash (test run) : 353886CB
CRC32 hash : 353886CB
CRC32 hash (skip zero) : 77C9997E
AccurateRip signature : 92F3798A
->Accurately ripped! (confidence 5)
(matched with the different offset correction value;
calculated using an additional offset of -634;
the signature after correction is: DD49A3E2)
Statistics
Read error : 0
Jitter error (maybe fixed) : 0
Retry sector count : 0
Damaged sector count : 0

Track 22
Filename : /Users/DianaBurnell/Desktop/XLD Outputs/Djawadi Ramin - 2007 - Prison Break [FLAC]/22 Cat & mouse.flac
Pre-gap length : 00:01:71

Track gain : -2.32 dB
Peak : 0.930420
CRC32 hash (test run) : 62F8AA8E
CRC32 hash : 62F8AA8E
CRC32 hash (skip zero) : 705497F6
AccurateRip signature : 499DEC03
->Accurately ripped! (confidence 5)
(matched with the different offset correction value;
calculated using an additional offset of -634;
the signature after correction is: D1A86D9E)
Statistics
Read error : 0
Jitter error (maybe fixed) : 0
Retry sector count : 0
Damaged sector count : 0

Track 23
Filename : /Users/DianaBurnell/Desktop/XLD Outputs/Djawadi Ramin - 2007 - Prison Break [FLAC]/23 (Classified).flac
Pre-gap length : 00:01:06

Track gain : 2.43 dB
Peak : 0.961426
CRC32 hash (test run) : 7749090D
CRC32 hash : 7749090D
CRC32 hash (skip zero) : 1B8DFCAF
AccurateRip signature : A491D70D
->Accurately ripped! (confidence 5)
(matched with the different offset correction value;
calculated using an additional offset of -634;
the signature after correction is: E9CCF88D)
Statistics
Read error : 0
Jitter error (maybe fixed) : 0
Retry sector count : 0
Damaged sector count : 0

Track 24
Filename : /Users/DianaBurnell/Desktop/XLD Outputs/Djawadi Ramin - 2007 - Prison Break [FLAC]/24 Remorse.flac
Pre-gap length : 00:01:42

Track gain : 5.27 dB
Peak : 0.312408
CRC32 hash (test run) : D42365C9
CRC32 hash : D42365C9
CRC32 hash (skip zero) : E33121F3
AccurateRip signature : 1BF2DA1F
->Accurately ripped! (confidence 5)
(matched with the different offset correction value;
calculated using an additional offset of -634;
the signature after correction is: C2CA6AA0)
Statistics
Read error : 0
Jitter error (maybe fixed) : 0
Retry sector count : 0
Damaged sector count : 0

Track 25
Filename : /Users/DianaBurnell/Desktop/XLD Outputs/Djawadi Ramin - 2007 - Prison Break [FLAC]/25 Origami.flac
Pre-gap length : 00:01:65

Track gain : 1.89 dB
Peak : 0.830811
CRC32 hash (test run) : D4FC35B8
CRC32 hash : D4FC35B8
CRC32 hash (skip zero) : 8CA1CD10
AccurateRip signature : D6464878
->Accurately ripped! (confidence 5)
(matched with the different offset correction value;
calculated using an additional offset of -634;
the signature after correction is: 51851635)
Statistics
Read error : 0
Jitter error (maybe fixed) : 0
Retry sector count : 0
Damaged sector count : 0

Track 26
Filename : /Users/DianaBurnell/Desktop/XLD Outputs/Djawadi Ramin - 2007 - Prison Break [FLAC]/26 Escape is just the beginning.flac
Pre-gap length : 00:01:63

Track gain : -3.22 dB
Peak : 0.973938
CRC32 hash (test run) : AE086A61
CRC32 hash : AE086A61
CRC32 hash (skip zero) : E97E9025
AccurateRip signature : 1D3312F4
->Accurately ripped! (confidence 5)
(matched with the different offset correction value;
calculated using an additional offset of -634;
the signature after correction is: BE9F95EC)
Statistics
Read error : 0
Jitter error (maybe fixed) : 0
Retry sector count : 0
Damaged sector count : 0

Track 27
Filename : /Users/DianaBurnell/Desktop/XLD Outputs/Djawadi Ramin - 2007 - Prison Break [FLAC]/27 Panama.flac
Pre-gap length : 00:01:37

Track gain : 2.81 dB
Peak : 0.817444
CRC32 hash (test run) : BAC542FA
CRC32 hash : BAC542FA
CRC32 hash (skip zero) : A8DA1789
AccurateRip signature : D4F24EB7
->Accurately ripped! (confidence 5)
(matched with the different offset correction value;
calculated using an additional offset of -634;
the signature after correction is: 2C924CD1)
Statistics
Read error : 0
Jitter error (maybe fixed) : 0
Retry sector count : 0
Damaged sector count : 0

Track 28
Filename : /Users/DianaBurnell/Desktop/XLD Outputs/Djawadi Ramin - 2007 - Prison Break [FLAC]/28 Maricruz.flac
Pre-gap length : 00:01:03

Track gain : 0.06 dB
Peak : 0.839355
CRC32 hash (test run) : 1B21095E
CRC32 hash : 1B21095E
CRC32 hash (skip zero) : C8FDEADA
AccurateRip signature : 3ECE673A
->Accurately ripped! (confidence 5)
(matched with the different offset correction value;
calculated using an additional offset of -634;
the signature after correction is: 061A20CA)
Statistics
Read error : 0
Jitter error (maybe fixed) : 0
Retry sector count : 0
Damaged sector count : 0

Track 29
Filename : /Users/DianaBurnell/Desktop/XLD Outputs/Djawadi Ramin - 2007 - Prison Break [FLAC]/29 Execution.flac
Pre-gap length : 00:02:07

Track gain : 3.37 dB
Peak : 0.979706
CRC32 hash (test run) : CD64CE08
CRC32 hash : CD64CE08
CRC32 hash (skip zero) : 8DAAE786
AccurateRip signature : CCA50B10
->Accurately ripped! (confidence 5)
(matched with the different offset correction value;
calculated using an additional offset of -634;
the signature after correction is: 4A0ACB0D)
Statistics
Read error : 0
Jitter error (maybe fixed) : 0
Retry sector count : 0
Damaged sector count : 0

Track 30
Filename : /Users/DianaBurnell/Desktop/XLD Outputs/Djawadi Ramin - 2007 - Prison Break [FLAC]/30 Trouble in paradise.flac
Pre-gap length : 00:00:26

Track gain : -0.20 dB
Peak : 0.860657
CRC32 hash (test run) : 569C095F
CRC32 hash : 569C095F
CRC32 hash (skip zero) : 0E650D4E
AccurateRip signature : E9042B9B
->Accurately ripped! (confidence 5)
(matched with the different offset correction value;
calculated using an additional offset of -634;
the signature after correction is: 059A6848)
Statistics
Read error : 0
Jitter error (maybe fixed) : 0
Retry sector count : 0
Damaged sector count : 0

Track 31
Filename : /Users/DianaBurnell/Desktop/XLD Outputs/Djawadi Ramin - 2007 - Prison Break [FLAC]/31 Sona.flac
Pre-gap length : 00:00:63

Track gain : 2.11 dB
Peak : 0.821106
CRC32 hash (test run) : 829B495D
CRC32 hash : 829B495D
CRC32 hash (skip zero) : 20C4F450
AccurateRip signature : 649DC06F
->Accurately ripped! (confidence 5)
(matched with the different offset correction value;
calculated using an additional offset of -634;
the signature after correction is: 66AD634E)
Statistics
Read error : 0
Jitter error (maybe fixed) : 0
Retry sector count : 0
Damaged sector count : 0

No errors occurred

End of status report
TITLE "Prison Break"
PERFORMER "Djawadi Ramin"
CATALOG 0030206683929
REM GENRE "Soundtrack"
REM DATE "2007"
REM DISCNUMBER 1
REM TOTALDISCS 1
REM DISCID D70EF31F
REM REPLAYGAIN_ALBUM_GAIN -0.63 dB
REM REPLAYGAIN_ALBUM_PEAK 0.983795
FILE "01 Main titles.flac" WAVE
TRACK 01 AUDIO
TITLE "Main titles"
SONGWRITER "Ramin Djawadi"
ISRC US3M50783901
REM REPLAYGAIN_TRACK_GAIN -1.07 dB
REM REPLAYGAIN_TRACK_PEAK 0.980133
INDEX 01 00:00:00
TRACK 02 AUDIO
TITLE "Strings of prisoners"
SONGWRITER "Ramin Djawadi"
ISRC US3M50783902
REM REPLAYGAIN_TRACK_GAIN -0.82 dB
REM REPLAYGAIN_TRACK_PEAK 0.979187
INDEX 00 02:27:24
FILE "02 Strings of prisoners.flac" WAVE
INDEX 01 00:00:00
TRACK 03 AUDIO
TITLE "Inking the plan"
SONGWRITER "Ramin Djawadi"
ISRC US3M50783903
REM REPLAYGAIN_TRACK_GAIN 1.12 dB
REM REPLAYGAIN_TRACK_PEAK 0.867615
INDEX 00 01:25:24
FILE "03 Inking the plan.flac" WAVE
INDEX 01 00:00:00
TRACK 04 AUDIO
TITLE "Save the brother's life"
SONGWRITER "Ramin Djawadi"
ISRC US3M50783904
REM REPLAYGAIN_TRACK_GAIN -3.40 dB
REM REPLAYGAIN_TRACK_PEAK 0.935181
INDEX 00 02:36:60
FILE "04 Save the brother's life.flac" WAVE
INDEX 01 00:00:00
TRACK 05 AUDIO
TITLE "In the yard"
SONGWRITER "Ramin Djawadi"
ISRC US3M50783905
REM REPLAYGAIN_TRACK_GAIN 0.66 dB
REM REPLAYGAIN_TRACK_PEAK 0.950989
INDEX 00 01:50:04
FILE "05 In the yard.flac" WAVE
INDEX 01 00:00:00
TRACK 06 AUDIO
TITLE "T-Bag's coming for dinner"
SONGWRITER "Ramin Djawadi"
ISRC US3M50783906
REM REPLAYGAIN_TRACK_GAIN 1.82 dB
REM REPLAYGAIN_TRACK_PEAK 0.601624
INDEX 00 01:44:07
FILE "06 T-Bag's coming for dinner.flac" WAVE
INDEX 01 00:00:00
TRACK 07 AUDIO
TITLE "Sucre's dilemma"
SONGWRITER "Ramin Djawadi"
ISRC US3M50783907
REM REPLAYGAIN_TRACK_GAIN 2.96 dB
REM REPLAYGAIN_TRACK_PEAK 0.770752
INDEX 00 01:42:62
FILE "07 Sucre's dilemma.flac" WAVE
INDEX 01 00:00:00
TRACK 08 AUDIO
TITLE "Sarah & Michael"
SONGWRITER "Ramin Djawadi"
ISRC US3M50783908
REM REPLAYGAIN_TRACK_GAIN 5.65 dB
REM REPLAYGAIN_TRACK_PEAK 0.839569
INDEX 00 02:25:17
FILE "08 Sarah & Michael.flac" WAVE
INDEX 01 00:00:00
TRACK 09 AUDIO
TITLE "Abruzzi is the ticket"
SONGWRITER "Ramin Djawadi"
ISRC US3M50783909
REM REPLAYGAIN_TRACK_GAIN 8.29 dB
REM REPLAYGAIN_TRACK_PEAK 0.721863
INDEX 00 01:41:29
FILE "09 Abruzzi is the ticket.flac" WAVE
INDEX 01 00:00:00
TRACK 10 AUDIO
TITLE "In the tunnels"
SONGWRITER "Ramin Djawadi"
ISRC US3M50783910
REM REPLAYGAIN_TRACK_GAIN 0.19 dB
REM REPLAYGAIN_TRACK_PEAK 0.877014
INDEX 00 01:55:31
FILE "10 In the tunnels.flac" WAVE
INDEX 01 00:00:00
TRACK 11 AUDIO
TITLE "Unconditional"
SONGWRITER "Ramin Djawadi"
ISRC US3M50783911
REM REPLAYGAIN_TRACK_GAIN 7.40 dB
REM REPLAYGAIN_TRACK_PEAK 0.361572
INDEX 00 02:54:56
FILE "11 Unconditional.flac" WAVE
INDEX 01 00:00:00
TRACK 12 AUDIO
TITLE "Conspiracy"
SONGWRITER "Ramin Djawadi"
ISRC US3M50783912
REM REPLAYGAIN_TRACK_GAIN 5.90 dB
REM REPLAYGAIN_TRACK_PEAK 0.848083
INDEX 00 02:16:65
FILE "12 Conspiracy.flac" WAVE
INDEX 01 00:00:00
TRACK 13 AUDIO
TITLE "Sarah"
SONGWRITER "Ramin Djawadi"
ISRC US3M50783913
REM REPLAYGAIN_TRACK_GAIN 5.05 dB
REM REPLAYGAIN_TRACK_PEAK 0.787872
INDEX 00 02:39:12
FILE "13 Sarah.flac" WAVE
INDEX 01 00:00:00
TRACK 14 AUDIO
TITLE "C-Note"
SONGWRITER "Ramin Djawadi"
ISRC US3M50783914
REM REPLAYGAIN_TRACK_GAIN 3.74 dB
REM REPLAYGAIN_TRACK_PEAK 0.682281
INDEX 00 02:42:34
FILE "14 C-Note.flac" WAVE
INDEX 01 00:00:00
TRACK 15 AUDIO
TITLE "An In-be-tweener"
SONGWRITER "Ramin Djawadi"
ISRC US3M50783915
REM REPLAYGAIN_TRACK_GAIN 4.94 dB
REM REPLAYGAIN_TRACK_PEAK 0.714355
INDEX 00 02:05:48
FILE "15 An In-be-tweener.flac" WAVE
INDEX 01 00:00:00
TRACK 16 AUDIO
TITLE "Prison Break"
SONGWRITER "Ramin Djawadi"
ISRC US3M50783916
REM REPLAYGAIN_TRACK_GAIN -2.68 dB
REM REPLAYGAIN_TRACK_PEAK 0.981750
INDEX 00 03:11:57
FILE "16 Prison Break.flac" WAVE
INDEX 01 00:00:00
TRACK 17 AUDIO
TITLE "The manhunt begins"
SONGWRITER "Ramin Djawadi"
ISRC US3M50783917
REM REPLAYGAIN_TRACK_GAIN -3.65 dB
REM REPLAYGAIN_TRACK_PEAK 0.969238
INDEX 00 03:31:18
FILE "17 The manhunt begins.flac" WAVE
INDEX 01 00:00:00
TRACK 18 AUDIO
TITLE "Special agent Mahone"
SONGWRITER "Ramin Djawadi"
ISRC US3M50783918
REM REPLAYGAIN_TRACK_GAIN 0.94 dB
REM REPLAYGAIN_TRACK_PEAK 0.859711
INDEX 00 02:13:27
FILE "18 Special agent Mahone.flac" WAVE
INDEX 01 00:00:00
TRACK 19 AUDIO
TITLE "Veronica is murdered"
SONGWRITER "Ramin Djawadi"
ISRC US3M50783919
REM REPLAYGAIN_TRACK_GAIN 2.20 dB
REM REPLAYGAIN_TRACK_PEAK 0.672424
INDEX 00 01:21:71
FILE "19 Veronica is murdered.flac" WAVE
INDEX 01 00:00:00
TRACK 20 AUDIO
TITLE "Linc & LJ"
SONGWRITER "Ramin Djawadi"
ISRC US3M50783920
REM REPLAYGAIN_TRACK_GAIN -0.52 dB
REM REPLAYGAIN_TRACK_PEAK 0.964203
INDEX 00 01:47:08
FILE "20 Linc & LJ.flac" WAVE
INDEX 01 00:00:00
TRACK 21 AUDIO
TITLE "Stand-off"
SONGWRITER "Ramin Djawadi"
ISRC US3M50783921
REM REPLAYGAIN_TRACK_GAIN -3.50 dB
REM REPLAYGAIN_TRACK_PEAK 0.983795
INDEX 00 02:02:62
FILE "21 Stand-off.flac" WAVE
INDEX 01 00:00:00
TRACK 22 AUDIO
TITLE "Cat & mouse"
SONGWRITER "Ramin Djawadi"
ISRC US3M50783922
REM REPLAYGAIN_TRACK_GAIN -2.32 dB
REM REPLAYGAIN_TRACK_PEAK 0.930420
INDEX 00 01:56:62
FILE "22 Cat & mouse.flac" WAVE
INDEX 01 00:00:00
TRACK 23 AUDIO
TITLE "(Classified)"
SONGWRITER "Ramin Djawadi"
ISRC US3M50783923
REM REPLAYGAIN_TRACK_GAIN 2.43 dB
REM REPLAYGAIN_TRACK_PEAK 0.961426
INDEX 00 01:32:51
FILE "23 (Classified).flac" WAVE
INDEX 01 00:00:00
TRACK 24 AUDIO
TITLE "Remorse"
SONGWRITER "Ramin Djawadi"
ISRC US3M50783924
REM REPLAYGAIN_TRACK_GAIN 5.27 dB
REM REPLAYGAIN_TRACK_PEAK 0.312408
INDEX 00 02:01:28
FILE "24 Remorse.flac" WAVE
INDEX 01 00:00:00
TRACK 25 AUDIO
TITLE "Origami"
SONGWRITER "Ramin Djawadi"
ISRC US3M50783925
REM REPLAYGAIN_TRACK_GAIN 1.89 dB
REM REPLAYGAIN_TRACK_PEAK 0.830811
INDEX 00 02:28:29
FILE "25 Origami.flac" WAVE
INDEX 01 00:00:00
TRACK 26 AUDIO
TITLE "Escape is just the beginning"
SONGWRITER "Ramin Djawadi"
ISRC US3M50783926
REM REPLAYGAIN_TRACK_GAIN -3.22 dB
REM REPLAYGAIN_TRACK_PEAK 0.973938
INDEX 00 01:01:45
FILE "26 Escape is just the beginning.flac" WAVE
INDEX 01 00:00:00
TRACK 27 AUDIO
TITLE "Panama"
SONGWRITER "Ramin Djawadi"
ISRC US3M50783927
REM REPLAYGAIN_TRACK_GAIN 2.81 dB
REM REPLAYGAIN_TRACK_PEAK 0.817444
INDEX 00 02:09:57
FILE "27 Panama.flac" WAVE
INDEX 01 00:00:00
TRACK 28 AUDIO
TITLE "Maricruz"
SONGWRITER "Ramin Djawadi"
ISRC US3M50783928
REM REPLAYGAIN_TRACK_GAIN 0.06 dB
REM REPLAYGAIN_TRACK_PEAK 0.839355
INDEX 00 01:20:58
FILE "28 Maricruz.flac" WAVE
INDEX 01 00:00:00
TRACK 29 AUDIO
TITLE "Execution"
SONGWRITER "Ramin Djawadi"
ISRC US3M50783929
REM REPLAYGAIN_TRACK_GAIN 3.37 dB
REM REPLAYGAIN_TRACK_PEAK 0.979706
INDEX 00 01:07:15
FILE "29 Execution.flac" WAVE
INDEX 01 00:00:00
TRACK 30 AUDIO
TITLE "Trouble in paradise"
SONGWRITER "Ramin Djawadi"
ISRC US3M50783930
REM REPLAYGAIN_TRACK_GAIN -0.20 dB
REM REPLAYGAIN_TRACK_PEAK 0.860657
INDEX 00 01:49:07
FILE "30 Trouble in paradise.flac" WAVE
INDEX 01 00:00:00
TRACK 31 AUDIO
TITLE "Sona"
SONGWRITER "Ramin Djawadi"
ISRC US3M50783931
REM REPLAYGAIN_TRACK_GAIN 2.11 dB
REM REPLAYGAIN_TRACK_PEAK 0.821106
INDEX 00 01:18:02
FILE "31 Sona.flac" WAVE
INDEX 01 00:00:00
picpicpic
Для увеличения картинки щелкните мышкой по превью

Этот торрент недоступен для скачивания без регистрации, однако доступен по публичной magnet-ссылке (источники с публичных трекеров). Перед использованием ссылки прочтите, пожалуйста Пользовательское соглашение, а также как можно дольше оставайтесь на раздаче! Для того, чтобы скачать сам торрент-файл (который видит больше источников), а также для того, чтобы поблагодарить релизера, вам необходимо зарегистрироваться. Если регистрироваться лень - вы можете также попробовать скачать релиз по нашим партнерским ссылкам ниже. Кроме того, зарегистрированным пользователям не показывается всплывающая реклама при скачивании.

[underverse.su].t60125.torrent
Трекер: Зарегистрирован   [ 20.11.2015 15:51 ]  

Статус: проверено (by garry at 20.11.2015 16:23)
Поблагодарили: пока никто не поблагодарил...
Тип торрента: публичный - доступные источники с открытых трекеров: 
Размер: 328 MB (занимает 0,07 DVDR, для записи нужно 1 болванка DVDR/RW)
 
 
Похожие темы
Форум Тема Автор Торрент Отв. Посл. сооб.
OST & Score - Movie (Score) Поезд на Юму / 3:10 to Yuma (by Marco Beltrami) (2007) [MP3, 320 kbps] garry
2 | 0

0 | 1053

1

06.07.2010 19:16

OST & Score - Movie (Score) Порок на экспорт / Eastern Promises (by Howard Shore) (2007) [MP3, 320 kbps] garry
1 | 0

0 | 941

0

12.07.2010 12:06

OST & Score - Movie (Score) Побег из Шоушенка / Shawshank Redemption (by Thomas Newman) (1994) [MP3, 320 kbps] garry
5 | 1

2 | 1126

1

31.03.2011 20:58

OST & Score - Movie (Score) Повелитель бури / Hurt Locker (by Marco Beltrami & Buck Sanders) (2010 (2008)) [MP3, 320 kbps] garry
1 | 0

0 | 1894

2

09.03.2010 19:02

OST & Score Movie, TV Show & Series, Game (Lossless) (Score) Поля / Texas Killing Fields (by Dickon Hinchliffe) (2012 (2011)) [FLAC (Tracks), lossless] WEB garry
1 | 1

0 | 866

0

30.06.2012 20:18

OST & Score Movie, TV Show & Series, Game (Lossless) (Score) Порок на экспорт / Eastern Promises (by Howard Shore) (2007) [FLAC (Tracks+.CUE), lossless] garry
2 | 0

0 | 741

1

16.11.2014 07:24

Архив (саундтреки и караоке) (Score) Последний полет Ноева ковчега / The Last Flight of Noah's Ark (by Maurice Jarre) (2012 (1980)) [MP3, 320 kbps] garry
0 | 0

1 | 1031

1

31.01.2018 20:50

# Архив (HQ саундтреки) (Score) Побег из Лос-Анджелеса / Escape from L.A. (by John Carpenter and Shirley Walker) (2014 (1996)) [FLAC (Tracks), lossless] garry
0 | 0

0 | 876

1

19.08.2014 18:58

Архив (HQ саундтреки) (Score) Полярная станция «Зебра» / Ice Station Zebra (by Michel Legrand) (2003 (1968)) [FLAC (Tracks+.CUE), lossless] garry
0 | 0

1 | 978

1

05.07.2017 15:45

Архив (HQ саундтреки) (Score) Последний звёздный боец / The Last Starfighter (by Craig Safan) (2015 (1984)) [FLAC (Tracks+.CUE), lossless] garry
0 | 0

1 | 888

2

05.07.2017 15:54


Яндекс.Метрика powered by Sphinx


В Н И М А Н И Е
Сайт не распространяет и не хранит электронные версии произведений, а лишь бесплатно и без коммерческой выгоды (не требуя взамен платы,
SMS и т.д.) предоставляет доступ к создаваемому пользователями каталогу ссылок на торрент-файлы, которые содержат только списки хеш-сумм.
Убедительная просьба с жалобами обращаться напрямую к пользователю, разместившему торрент файл.

Вверх