Loading...
Error

Кунг-фу Кролик: Повелитель огня / Tu Xia Chuan Qi: Qing Li Chuan Shuo (Дейк Донг) [2015 г., мультфильм, комедия, приключения, семейный, WEB-DL 1080p] Dub

Статистика раздачи
Размер:  3,26 GB   |    Зарегистрирован:  2 года 7 месяцев   |    Скачан:  62 раза

Полного источника не было: 1 месяц 29 дней

Сидов:  0  |  0 KB/s  ]   Личеров:  0  |  0 KB/s  ]

* - сиды/пиры с внешних источников

   
 
Автор Сообщение

makkol Пол:Муж

16-Окт-2015 22:12

Кунг-фу Кролик: Повелитель огня / Tu Xia Chuan Qi: Qing Li Chuan Shuo
«Убегающий тигр, спрятавшийся дракон»


Год выпуска: 2015
Жанр: мультфильм, комедия, приключения, семейный
Производство: Китай [Shanghai Toonmax Media Co]
Режиссер: Дейк Донг
Роли озвучивали: Юньвэй Хэ, Ли Хуанг
Сюжет фильма:
Победу в поединке сильнейших бойцов неожиданно одерживает неуклюжий с виду пушистый кролик, лучше других владеющий секретами древнего кунг-фу, после чего становится главным защитником деревни. Однако, не долго ему удается купаться в лучах славы и наслаждаться вниманием поклонников. Злодеи вознамерились выкрасть у кролика магический камень и тем самым лишить его силы. Сможет ли пушистый супергерой защитить деревню и противостоять злодеям без силы волшебного камня?

  • Мировая премьера: 21 февраля 2015
  • Российская премьера: 17 сентября 2015


Качество видео: WEB-DL 1080p

Продолжительность: 01:35:29
Формат: MKV
Видео: MPEG-4 AVC, 1920x804 (2.40:1), 24.000 fps, 4407 kbps
Аудио: русский, дублированный (iTunes), AC3 5.1, 48 kHz, 384 kbps

Код:

General
Unique ID                   : 251172568922140138581114142374003161470 (0xBCF613C162BD712489CFC2BCEC7B397E)
Complete name               : KuNg.Fu.Kr0liK.p0ve1itel.0gnya.2015.D.WEB-DL.1080p.mkv
Format                      : Matroska
Format version              : Version 4 / Version 2
File size                   : 3.26 GiB
Duration                    : 1h 35mn
Overall bit rate            : 4 888 Kbps
Encoded date                : UTC 2015-10-14 18:57:25
Writing application         : mkvmerge v6.0.0 ('Coming Up For Air') built on Jan 20 2013 09:52:00
Writing library             : libebml v1.3.0 + libmatroska v1.4.0

Video
ID                          : 1
Format                      : AVC
Format/Info                 : Advanced Video Codec
Format profile              : High@L4
Format settings, CABAC      : Yes
Format settings, ReFrames   : 5 frames
Codec ID                    : V_MPEG4/ISO/AVC
Duration                    : 1h 35mn
Bit rate                    : 4 407 Kbps
Width                       : 1 920 pixels
Height                      : 804 pixels
Display aspect ratio        : 2.40:1
Frame rate mode             : Constant
Frame rate                  : 24.000 fps
Color space                 : YUV
Chroma subsampling          : 4:2:0
Bit depth                   : 8 bits
Scan type                   : Progressive
Bits/(Pixel*Frame)          : 0.119
Stream size                 : 2.94 GiB (90%)
Language                    : English
Default                     : Yes
Forced                      : No
Color range                 : Limited
Color primaries             : BT.709
Transfer characteristics    : BT.709
Matrix coefficients         : BT.709

Audio
ID                          : 2
Format                      : AC-3
Format/Info                 : Audio Coding 3
Mode extension              : CM (complete main)
Format settings, Endianness : Big
Codec ID                    : A_AC3
Duration                    : 1h 35mn
Bit rate mode               : Constant
Bit rate                    : 384 Kbps
Channel(s)                  : 6 channels
Channel positions           : Front: L C R, Side: L R, LFE
Sampling rate               : 48.0 KHz
Compression mode            : Lossy
Stream size                 : 262 MiB (8%)
Language                    : Russian
Default                     : Yes
Forced                      : No

Menu
00:00:00.000                : en:Глава 1
00:05:00.000                : en:Глава 2
00:11:09.000                : en:Глава 3
00:17:22.000                : en:Глава 4
00:22:23.000                : en:Глава 5
00:27:50.000                : en:Глава 6
00:33:19.000                : en:Глава 7
00:39:40.000                : en:Глава 8
00:45:38.000                : en:Глава 9
00:50:01.000                : en:Глава 10
00:55:19.000                : en:Глава 11
01:00:37.000                : en:Глава 12
01:05:55.000                : en:Глава 13
01:12:18.000                : en:Глава 14
01:18:02.000                : en:Глава 15
01:23:37.000                : en:Глава 16
01:30:10.000                : en:Глава 17
picpicpicpicpic
Для увеличения картинки щелкните мышкой по превью

Этот торрент недоступен для скачивания без регистрации, однако доступен по публичной magnet-ссылке (источники с публичных трекеров). Перед использованием ссылки прочтите, пожалуйста Пользовательское соглашение, а также как можно дольше оставайтесь на раздаче! Для того, чтобы скачать сам торрент-файл (который видит больше источников), а также для того, чтобы поблагодарить релизера, вам необходимо зарегистрироваться. Если регистрироваться лень - вы можете также попробовать скачать релиз по нашим партнерским ссылкам ниже. Кроме того, зарегистрированным пользователям не показывается всплывающая реклама при скачивании.

[underverse.su].t59224.torrent
Трекер: Зарегистрирован   [ 16.10.2015 22:12 ]  

Статус: T временная (by makkol at 18.10.2015 12:39)
Поблагодарили: 1 человек
Тип торрента: публичный - доступные источники с открытых трекеров: 
Размер: 3,26 GB (занимает 0,74 DVDR, для записи нужно 1 болванка DVDR/RW)
 
 
Похожие темы
Форум Тема Автор Торрент Отв. Посл. сооб.
T Зарубежные мультфильмы Кунг-фу Кролик: Повелитель огня / Tu Xia Chuan Qi: Qing Li Chuan Shuo (Дейк Донг) [2015 г., мультфильм, комедия, приключения, семейный, WEB-DLRip] Dub makkol
75 | 0

0 | 911

54

16.10.2015 22:01


Яндекс.Метрика powered by Sphinx


В Н И М А Н И Е
Сайт не распространяет и не хранит электронные версии произведений, а лишь бесплатно и без коммерческой выгоды (не требуя взамен платы,
SMS и т.д.) предоставляет доступ к создаваемому пользователями каталогу ссылок на торрент-файлы, которые содержат только списки хеш-сумм.
Убедительная просьба с жалобами обращаться напрямую к пользователю, разместившему торрент файл.

Вверх