Loading...
Error

(Score) Лига справедливости: Боги и монстры / Justice League: Gods and Monsters (by Frederik Wiedmann) (2015) [FLAC (Tracks+.CUE), lossless]

Статистика раздачи
Размер:  304 MB   |    Зарегистрирован:  2 года 5 месяцев   |    Скачан:  1 раз

Полного источника не было: 15 часов

Сидов:  0  |  0 KB/s  ]   Личеров:  0  |  0 KB/s  ]

* - сиды/пиры с внешних источников

   
 
Автор Сообщение

garry Пол:Муж

24-Авг-2015 23:02

Лига справедливости: Боги и монстры / Justice League: Gods and Monsters (by Frederik Wiedmann)

Жанр: Score
Год выпуска: 2015
Источник: CD
Производитель: La-La Land Records, LLLCD 1362
Аудиокодек: FLAC
Тип рипа: Tracks+.CUE
Битрейт: lossless
Продолжительность: 00:53:59

Треклист:

01 - Last Child of Krypton
02 - Main Title
03 - Code Black
04 - Another Kill
05 - Fair Play
06 - In Another Life
07 - Torn Apart
08 - Virtually Impenetrable
09 - No More Disappearing
10 - A Warm Heart
11 - You Belonged to Someone Once
12 - Tasting Blood
13 - No Redemption
14 - Trust
15 - Aftermath
16 - Superman's Legacy
17 - Evacuate Metropolis
18 - Victor Fries
19 - All Minds as One
20 - Magnus
21 - Get Out of My House
22 - I Love Two People
23 - The Core
24 - Be a Real Hero
25 - Justice League: Gods and Monsters
26 - Superman - Bomb (Bonus Track)
X Lossless Decoder version 20141129 (148.1)

XLD extraction logfile from 2015-08-22 18:15:00 -0500

Frederick Wiedmann / Justice League: Gods and Monsters

Used drive : TSSTcorp BDDVDW SE-506CB (revision TS00)
Media type : Pressed CD

Ripper mode : CDParanoia III 10.2
Disable audio cache : OK for the drive with a cache less than 2750KiB
Make use of C2 pointers : NO
Read offset correction : 6
Max retry count : 100
Gap status : Analyzed, Appended

TOC of the extracted CD
Track | Start | Length | Start sector | End sector
---------------------------------------------------------
1 | 00:00:00 | 02:29:27 | 0 | 11201
2 | 02:29:27 | 01:30:57 | 11202 | 18008
3 | 04:00:09 | 01:48:35 | 18009 | 26143
4 | 05:48:44 | 01:42:11 | 26144 | 33804
5 | 07:30:55 | 01:01:43 | 33805 | 38422
6 | 08:32:23 | 04:29:46 | 38423 | 58643
7 | 13:01:69 | 01:16:00 | 58644 | 64343
8 | 14:17:69 | 02:38:55 | 64344 | 76248
9 | 16:56:49 | 02:20:14 | 76249 | 86762
10 | 19:16:63 | 01:24:37 | 86763 | 93099
11 | 20:41:25 | 01:11:25 | 93100 | 98449
12 | 21:52:50 | 01:30:67 | 98450 | 105266
13 | 23:23:42 | 02:20:28 | 105267 | 115794
14 | 25:43:70 | 01:21:08 | 115795 | 121877
15 | 27:05:03 | 01:12:23 | 121878 | 127300
16 | 28:17:26 | 04:22:22 | 127301 | 146972
17 | 32:39:48 | 02:07:49 | 146973 | 156546
18 | 34:47:22 | 01:16:39 | 156547 | 162285
19 | 36:03:61 | 03:18:57 | 162286 | 177192
20 | 39:22:43 | 01:30:49 | 177193 | 183991
21 | 40:53:17 | 01:44:63 | 183992 | 191854
22 | 42:38:05 | 01:26:64 | 191855 | 198368
23 | 44:04:69 | 01:39:56 | 198369 | 205849
24 | 45:44:50 | 03:26:61 | 205850 | 221360
25 | 49:11:36 | 01:14:43 | 221361 | 226953
26 | 50:26:04 | 03:33:42 | 226954 | 242970

AccurateRip Summary
Disc not found in AccurateRip DB.

All Tracks
Statistics
Read error : 0
Skipped (treated as error) : 0
Edge jitter error (maybe fixed) : 0
Atom jitter error (maybe fixed) : 22
Drift error (maybe fixed) : 0
Dropped bytes error (maybe fixed) : 0
Duplicated bytes error (maybe fixed) : 0

Track 01
Filename : /Users/kgpat/Desktop/Convert/JusticeLeagueGMflac/01 Frederick Wiedmann - Last Child of Krypton.flac
Pre-gap length : 00:02:00

CRC32 hash : 14444AEE
CRC32 hash (skip zero) : E6ECED36
AccurateRip v1 signature : FD25CA8F
AccurateRip v2 signature : 847581DB
->Track not present in AccurateRip database.
Statistics
Read error : 0
Skipped (treated as error) : 0
Edge jitter error (maybe fixed) : 0
Atom jitter error (maybe fixed) : 2
Drift error (maybe fixed) : 0
Dropped bytes error (maybe fixed) : 0
Duplicated bytes error (maybe fixed) : 0

Track 02
Filename : /Users/kgpat/Desktop/Convert/JusticeLeagueGMflac/02 Frederick Wiedmann - Main Title.flac
Pre-gap length : 00:02:00

CRC32 hash : 2ADACA88
CRC32 hash (skip zero) : FF111FB2
AccurateRip v1 signature : AF7EAD09
AccurateRip v2 signature : 8C598234
->Track not present in AccurateRip database.
Statistics
Read error : 0
Skipped (treated as error) : 0
Edge jitter error (maybe fixed) : 0
Atom jitter error (maybe fixed) : 0
Drift error (maybe fixed) : 0
Dropped bytes error (maybe fixed) : 0
Duplicated bytes error (maybe fixed) : 0

Track 03
Filename : /Users/kgpat/Desktop/Convert/JusticeLeagueGMflac/03 Frederick Wiedmann - Code Black.flac
Pre-gap length : 00:02:00

CRC32 hash : E8D8A797
CRC32 hash (skip zero) : 5188EECA
AccurateRip v1 signature : 9DF6C21D
AccurateRip v2 signature : 9CA46FD8
->Track not present in AccurateRip database.
Statistics
Read error : 0
Skipped (treated as error) : 0
Edge jitter error (maybe fixed) : 0
Atom jitter error (maybe fixed) : 0
Drift error (maybe fixed) : 0
Dropped bytes error (maybe fixed) : 0
Duplicated bytes error (maybe fixed) : 0

Track 04
Filename : /Users/kgpat/Desktop/Convert/JusticeLeagueGMflac/04 Frederick Wiedmann - Another Kill.flac
Pre-gap length : 00:02:00

CRC32 hash : ED6C1309
CRC32 hash (skip zero) : C1C42B37
AccurateRip v1 signature : 59F63087
AccurateRip v2 signature : 94E23B59
->Track not present in AccurateRip database.
Statistics
Read error : 0
Skipped (treated as error) : 0
Edge jitter error (maybe fixed) : 0
Atom jitter error (maybe fixed) : 0
Drift error (maybe fixed) : 0
Dropped bytes error (maybe fixed) : 0
Duplicated bytes error (maybe fixed) : 0

Track 05
Filename : /Users/kgpat/Desktop/Convert/JusticeLeagueGMflac/05 Frederick Wiedmann - Fair Play.flac
Pre-gap length : 00:02:00

CRC32 hash : 1AFE5B53
CRC32 hash (skip zero) : 9FE6E3C9
AccurateRip v1 signature : 8AFF1DF1
AccurateRip v2 signature : 81F9672F
->Track not present in AccurateRip database.
Statistics
Read error : 0
Skipped (treated as error) : 0
Edge jitter error (maybe fixed) : 0
Atom jitter error (maybe fixed) : 0
Drift error (maybe fixed) : 0
Dropped bytes error (maybe fixed) : 0
Duplicated bytes error (maybe fixed) : 0

Track 06
Filename : /Users/kgpat/Desktop/Convert/JusticeLeagueGMflac/06 Frederick Wiedmann - In Another Life.flac
Pre-gap length : 00:02:00

CRC32 hash : 9E253647
CRC32 hash (skip zero) : EE11788E
AccurateRip v1 signature : ABEBE63C
AccurateRip v2 signature : 885C51BA
->Track not present in AccurateRip database.
Statistics
Read error : 0
Skipped (treated as error) : 0
Edge jitter error (maybe fixed) : 0
Atom jitter error (maybe fixed) : 0
Drift error (maybe fixed) : 0
Dropped bytes error (maybe fixed) : 0
Duplicated bytes error (maybe fixed) : 0

Track 07
Filename : /Users/kgpat/Desktop/Convert/JusticeLeagueGMflac/07 Frederick Wiedmann - Torn Apart.flac
Pre-gap length : 00:02:00

CRC32 hash : 8D668F13
CRC32 hash (skip zero) : 9881F9ED
AccurateRip v1 signature : B72B7EFD
AccurateRip v2 signature : A57A679B
->Track not present in AccurateRip database.
Statistics
Read error : 0
Skipped (treated as error) : 0
Edge jitter error (maybe fixed) : 0
Atom jitter error (maybe fixed) : 0
Drift error (maybe fixed) : 0
Dropped bytes error (maybe fixed) : 0
Duplicated bytes error (maybe fixed) : 0

Track 08
Filename : /Users/kgpat/Desktop/Convert/JusticeLeagueGMflac/08 Frederick Wiedmann - Virtually Impenetrable.flac
Pre-gap length : 00:02:00

CRC32 hash : 8E759C16
CRC32 hash (skip zero) : 44997AFA
AccurateRip v1 signature : 1673D0B8
AccurateRip v2 signature : 26ADDE4F
->Track not present in AccurateRip database.
Statistics
Read error : 0
Skipped (treated as error) : 0
Edge jitter error (maybe fixed) : 0
Atom jitter error (maybe fixed) : 2
Drift error (maybe fixed) : 0
Dropped bytes error (maybe fixed) : 0
Duplicated bytes error (maybe fixed) : 0

Track 09
Filename : /Users/kgpat/Desktop/Convert/JusticeLeagueGMflac/09 Frederick Wiedmann - No More Disappearing.flac
Pre-gap length : 00:02:00

CRC32 hash : 860E4C04
CRC32 hash (skip zero) : D6161FAE
AccurateRip v1 signature : 49EA54BF
AccurateRip v2 signature : D367024B
->Track not present in AccurateRip database.
Statistics
Read error : 0
Skipped (treated as error) : 0
Edge jitter error (maybe fixed) : 0
Atom jitter error (maybe fixed) : 0
Drift error (maybe fixed) : 0
Dropped bytes error (maybe fixed) : 0
Duplicated bytes error (maybe fixed) : 0

Track 10
Filename : /Users/kgpat/Desktop/Convert/JusticeLeagueGMflac/10 Frederick Wiedmann - A Warm Heart.flac
Pre-gap length : 00:02:00

CRC32 hash : 8146085B
CRC32 hash (skip zero) : CF52DED9
AccurateRip v1 signature : 9B89EBCB
AccurateRip v2 signature : DF99C441
->Track not present in AccurateRip database.
Statistics
Read error : 0
Skipped (treated as error) : 0
Edge jitter error (maybe fixed) : 0
Atom jitter error (maybe fixed) : 0
Drift error (maybe fixed) : 0
Dropped bytes error (maybe fixed) : 0
Duplicated bytes error (maybe fixed) : 0

Track 11
Filename : /Users/kgpat/Desktop/Convert/JusticeLeagueGMflac/11 Frederick Wiedmann - You Belonged to Someone Once.flac
Pre-gap length : 00:02:00

CRC32 hash : 6DF4CD3E
CRC32 hash (skip zero) : 8DCD4DE5
AccurateRip v1 signature : 78CF0B17
AccurateRip v2 signature : 82EF782F
->Track not present in AccurateRip database.
Statistics
Read error : 0
Skipped (treated as error) : 0
Edge jitter error (maybe fixed) : 0
Atom jitter error (maybe fixed) : 0
Drift error (maybe fixed) : 0
Dropped bytes error (maybe fixed) : 0
Duplicated bytes error (maybe fixed) : 0

Track 12
Filename : /Users/kgpat/Desktop/Convert/JusticeLeagueGMflac/12 Frederick Wiedmann - Tasting Blood.flac
Pre-gap length : 00:02:00

CRC32 hash : 5D13EDAA
CRC32 hash (skip zero) : 5179EBF6
AccurateRip v1 signature : BCB8FC8B
AccurateRip v2 signature : 4A5DAB77
->Track not present in AccurateRip database.
Statistics
Read error : 0
Skipped (treated as error) : 0
Edge jitter error (maybe fixed) : 0
Atom jitter error (maybe fixed) : 0
Drift error (maybe fixed) : 0
Dropped bytes error (maybe fixed) : 0
Duplicated bytes error (maybe fixed) : 0

Track 13
Filename : /Users/kgpat/Desktop/Convert/JusticeLeagueGMflac/13 Frederick Wiedmann - No Redemption.flac
Pre-gap length : 00:02:00

CRC32 hash : 9C266E9C
CRC32 hash (skip zero) : 923F0DE7
AccurateRip v1 signature : 3D938D38
AccurateRip v2 signature : 2CA7A293
->Track not present in AccurateRip database.
Statistics
Read error : 0
Skipped (treated as error) : 0
Edge jitter error (maybe fixed) : 0
Atom jitter error (maybe fixed) : 5
Drift error (maybe fixed) : 0
Dropped bytes error (maybe fixed) : 0
Duplicated bytes error (maybe fixed) : 0

Track 14
Filename : /Users/kgpat/Desktop/Convert/JusticeLeagueGMflac/14 Frederick Wiedmann - Trust.flac
Pre-gap length : 00:02:00

CRC32 hash : 007A8319
CRC32 hash (skip zero) : 57608504
AccurateRip v1 signature : D2EBA2CA
AccurateRip v2 signature : 70BDC4E6
->Track not present in AccurateRip database.
Statistics
Read error : 0
Skipped (treated as error) : 0
Edge jitter error (maybe fixed) : 0
Atom jitter error (maybe fixed) : 0
Drift error (maybe fixed) : 0
Dropped bytes error (maybe fixed) : 0
Duplicated bytes error (maybe fixed) : 0

Track 15
Filename : /Users/kgpat/Desktop/Convert/JusticeLeagueGMflac/15 Frederick Wiedmann - Aftermath.flac
Pre-gap length : 00:02:00

CRC32 hash : 1569ABE9
CRC32 hash (skip zero) : D60FB0D0
AccurateRip v1 signature : 23C715B0
AccurateRip v2 signature : 15385228
->Track not present in AccurateRip database.
Statistics
Read error : 0
Skipped (treated as error) : 0
Edge jitter error (maybe fixed) : 0
Atom jitter error (maybe fixed) : 0
Drift error (maybe fixed) : 0
Dropped bytes error (maybe fixed) : 0
Duplicated bytes error (maybe fixed) : 0

Track 16
Filename : /Users/kgpat/Desktop/Convert/JusticeLeagueGMflac/16 Frederick Wiedmann - Superman’s Legacy.flac
Pre-gap length : 00:02:00

CRC32 hash : 425D8539
CRC32 hash (skip zero) : 1E114596
AccurateRip v1 signature : 39BC29CF
AccurateRip v2 signature : 28E5020B
->Track not present in AccurateRip database.
Statistics
Read error : 0
Skipped (treated as error) : 0
Edge jitter error (maybe fixed) : 0
Atom jitter error (maybe fixed) : 0
Drift error (maybe fixed) : 0
Dropped bytes error (maybe fixed) : 0
Duplicated bytes error (maybe fixed) : 0

Track 17
Filename : /Users/kgpat/Desktop/Convert/JusticeLeagueGMflac/17 Frederick Wiedmann - Evacuate Metropolis.flac
Pre-gap length : 00:02:00

CRC32 hash : 9FC2872F
CRC32 hash (skip zero) : 1655A05E
AccurateRip v1 signature : 26C14A10
AccurateRip v2 signature : F51B0072
->Track not present in AccurateRip database.
Statistics
Read error : 0
Skipped (treated as error) : 0
Edge jitter error (maybe fixed) : 0
Atom jitter error (maybe fixed) : 0
Drift error (maybe fixed) : 0
Dropped bytes error (maybe fixed) : 0
Duplicated bytes error (maybe fixed) : 0

Track 18
Filename : /Users/kgpat/Desktop/Convert/JusticeLeagueGMflac/18 Frederick Wiedmann - Victor Fries.flac
Pre-gap length : 00:02:00

CRC32 hash : 4AE0AEDF
CRC32 hash (skip zero) : 2DB1567C
AccurateRip v1 signature : 3C261082
AccurateRip v2 signature : 16007FA6
->Track not present in AccurateRip database.
Statistics
Read error : 0
Skipped (treated as error) : 0
Edge jitter error (maybe fixed) : 0
Atom jitter error (maybe fixed) : 0
Drift error (maybe fixed) : 0
Dropped bytes error (maybe fixed) : 0
Duplicated bytes error (maybe fixed) : 0

Track 19
Filename : /Users/kgpat/Desktop/Convert/JusticeLeagueGMflac/19 Frederick Wiedmann - All Minds as One.flac
Pre-gap length : 00:02:00

CRC32 hash : C6637CA9
CRC32 hash (skip zero) : 0966FC82
AccurateRip v1 signature : 53990D27
AccurateRip v2 signature : CB54E278
->Track not present in AccurateRip database.
Statistics
Read error : 0
Skipped (treated as error) : 0
Edge jitter error (maybe fixed) : 0
Atom jitter error (maybe fixed) : 2
Drift error (maybe fixed) : 0
Dropped bytes error (maybe fixed) : 0
Duplicated bytes error (maybe fixed) : 0

Track 20
Filename : /Users/kgpat/Desktop/Convert/JusticeLeagueGMflac/20 Frederick Wiedmann - Magnus.flac
Pre-gap length : 00:02:00

CRC32 hash : 4956D454
CRC32 hash (skip zero) : FE54F77F
AccurateRip v1 signature : 5D551AE8
AccurateRip v2 signature : 3CE7AB5B
->Track not present in AccurateRip database.
Statistics
Read error : 0
Skipped (treated as error) : 0
Edge jitter error (maybe fixed) : 0
Atom jitter error (maybe fixed) : 3
Drift error (maybe fixed) : 0
Dropped bytes error (maybe fixed) : 0
Duplicated bytes error (maybe fixed) : 0

Track 21
Filename : /Users/kgpat/Desktop/Convert/JusticeLeagueGMflac/21 Frederick Wiedmann - Get Out of My House.flac
Pre-gap length : 00:02:00

CRC32 hash : 0A0F422D
CRC32 hash (skip zero) : 5C151758
AccurateRip v1 signature : AB78A4A7
AccurateRip v2 signature : D4F324E0
->Track not present in AccurateRip database.
Statistics
Read error : 0
Skipped (treated as error) : 0
Edge jitter error (maybe fixed) : 0
Atom jitter error (maybe fixed) : 0
Drift error (maybe fixed) : 0
Dropped bytes error (maybe fixed) : 0
Duplicated bytes error (maybe fixed) : 0

Track 22
Filename : /Users/kgpat/Desktop/Convert/JusticeLeagueGMflac/22 Frederick Wiedmann - I Love Two People.flac
Pre-gap length : 00:02:00

CRC32 hash : FF4F184B
CRC32 hash (skip zero) : 1F00FF1F
AccurateRip v1 signature : 8078A01F
AccurateRip v2 signature : 5C4A2A9F
->Track not present in AccurateRip database.
Statistics
Read error : 0
Skipped (treated as error) : 0
Edge jitter error (maybe fixed) : 0
Atom jitter error (maybe fixed) : 0
Drift error (maybe fixed) : 0
Dropped bytes error (maybe fixed) : 0
Duplicated bytes error (maybe fixed) : 0

Track 23
Filename : /Users/kgpat/Desktop/Convert/JusticeLeagueGMflac/23 Frederick Wiedmann - The Core.flac
Pre-gap length : 00:02:00

CRC32 hash : A777C55F
CRC32 hash (skip zero) : 7E9E97A4
AccurateRip v1 signature : AA1E713E
AccurateRip v2 signature : E77BC9F1
->Track not present in AccurateRip database.
Statistics
Read error : 0
Skipped (treated as error) : 0
Edge jitter error (maybe fixed) : 0
Atom jitter error (maybe fixed) : 2
Drift error (maybe fixed) : 0
Dropped bytes error (maybe fixed) : 0
Duplicated bytes error (maybe fixed) : 0

Track 24
Filename : /Users/kgpat/Desktop/Convert/JusticeLeagueGMflac/24 Frederick Wiedmann - Be a Real Hero.flac
Pre-gap length : 00:02:00

CRC32 hash : 79BAFE61
CRC32 hash (skip zero) : AECD435C
AccurateRip v1 signature : 60839783
AccurateRip v2 signature : F323D651
->Track not present in AccurateRip database.
Statistics
Read error : 0
Skipped (treated as error) : 0
Edge jitter error (maybe fixed) : 0
Atom jitter error (maybe fixed) : 4
Drift error (maybe fixed) : 0
Dropped bytes error (maybe fixed) : 0
Duplicated bytes error (maybe fixed) : 0

Track 25
Filename : /Users/kgpat/Desktop/Convert/JusticeLeagueGMflac/25 Frederick Wiedmann - Justice League: Gods and Monsters.flac
Pre-gap length : 00:02:00

CRC32 hash : 5056EC52
CRC32 hash (skip zero) : 591DBF66
AccurateRip v1 signature : D3AE9882
AccurateRip v2 signature : 7BD2A276
->Track not present in AccurateRip database.
Statistics
Read error : 0
Skipped (treated as error) : 0
Edge jitter error (maybe fixed) : 0
Atom jitter error (maybe fixed) : 2
Drift error (maybe fixed) : 0
Dropped bytes error (maybe fixed) : 0
Duplicated bytes error (maybe fixed) : 0

Track 26
Filename : /Users/kgpat/Desktop/Convert/JusticeLeagueGMflac/26 Frederick Wiedmann - Superman – Bomb (Bonus Track).flac
Pre-gap length : 00:04:00

CRC32 hash : 41587A6A
CRC32 hash (skip zero) : A16CEC58
AccurateRip v1 signature : 6F539D41
AccurateRip v2 signature : 69E1F359
->Track not present in AccurateRip database.
Statistics
Read error : 0
Skipped (treated as error) : 0
Edge jitter error (maybe fixed) : 0
Atom jitter error (maybe fixed) : 0
Drift error (maybe fixed) : 0
Dropped bytes error (maybe fixed) : 0
Duplicated bytes error (maybe fixed) : 0

No errors occurred

End of status report
TITLE "Justice League: Gods and Monsters"
PERFORMER "Frederick Wiedmann"
REM GENRE "Soundtrack"
REM DATE "2015"
REM DISCNUMBER 1
REM TOTALDISCS 1
REM DISCID 680CA71A
FILE "01 - Last Child of Krypton.wav" WAVE
TRACK 01 AUDIO
TITLE "Last Child of Krypton"
PERFORMER "Frederick Wiedmann"
SONGWRITER "Frederik Wiedmann/Wiedmann, Frederick"
FLAGS DCP
INDEX 01 00:00:00
TRACK 02 AUDIO
TITLE "Main Title"
PERFORMER "Frederick Wiedmann"
SONGWRITER "Frederik Wiedmann/Wiedmann, Frederick"
FLAGS DCP
INDEX 00 02:27:27
FILE "02 - Main Title.wav" WAVE
INDEX 01 00:00:00
TRACK 03 AUDIO
TITLE "Code Black"
PERFORMER "Frederick Wiedmann"
SONGWRITER "Frederik Wiedmann/Wiedmann, Frederick"
FLAGS DCP
INDEX 00 01:28:57
FILE "03 - Code Black.wav" WAVE
INDEX 01 00:00:00
TRACK 04 AUDIO
TITLE "Another Kill"
PERFORMER "Frederick Wiedmann"
SONGWRITER "Frederik Wiedmann/Wiedmann, Frederick"
FLAGS DCP
INDEX 00 01:46:35
FILE "04 - Another Kill.wav" WAVE
INDEX 01 00:00:00
TRACK 05 AUDIO
TITLE "Fair Play"
PERFORMER "Frederick Wiedmann"
SONGWRITER "Frederik Wiedmann/Wiedmann, Frederick"
FLAGS DCP
INDEX 00 01:40:11
FILE "05 - Fair Play.wav" WAVE
INDEX 01 00:00:00
TRACK 06 AUDIO
TITLE "In Another Life"
PERFORMER "Frederick Wiedmann"
SONGWRITER "Frederik Wiedmann/Wiedmann, Frederick"
FLAGS DCP
INDEX 00 00:59:43
FILE "06 - In Another Life.wav" WAVE
INDEX 01 00:00:00
TRACK 07 AUDIO
TITLE "Torn Apart"
PERFORMER "Frederick Wiedmann"
SONGWRITER "Frederik Wiedmann/Wiedmann, Frederick"
FLAGS DCP
INDEX 00 04:27:46
FILE "07 - Torn Apart.wav" WAVE
INDEX 01 00:00:00
TRACK 08 AUDIO
TITLE "Virtually Impenetrable"
PERFORMER "Frederick Wiedmann"
SONGWRITER "Frederik Wiedmann/Wiedmann, Frederick"
FLAGS DCP
INDEX 00 01:14:00
FILE "08 - Virtually Impenetrable.wav" WAVE
INDEX 01 00:00:00
TRACK 09 AUDIO
TITLE "No More Disappearing"
PERFORMER "Frederick Wiedmann"
SONGWRITER "Frederik Wiedmann/Wiedmann, Frederick"
FLAGS DCP
INDEX 00 02:36:55
FILE "09 - No More Disappearing.wav" WAVE
INDEX 01 00:00:00
TRACK 10 AUDIO
TITLE "A Warm Heart"
PERFORMER "Frederick Wiedmann"
SONGWRITER "Frederik Wiedmann/Wiedmann, Frederick"
FLAGS DCP
INDEX 00 02:18:14
FILE "10 - A Warm Heart.wav" WAVE
INDEX 01 00:00:00
TRACK 11 AUDIO
TITLE "You Belonged to Someone Once"
PERFORMER "Frederick Wiedmann"
SONGWRITER "Frederik Wiedmann/Wiedmann, Frederick"
FLAGS DCP
INDEX 00 01:22:37
FILE "11 - You Belonged to Someone Once.wav" WAVE
INDEX 01 00:00:00
TRACK 12 AUDIO
TITLE "Tasting Blood"
PERFORMER "Frederick Wiedmann"
SONGWRITER "Frederik Wiedmann/Wiedmann, Frederick"
FLAGS DCP
INDEX 00 01:09:25
FILE "12 - Tasting Blood.wav" WAVE
INDEX 01 00:00:00
TRACK 13 AUDIO
TITLE "No Redemption"
PERFORMER "Frederick Wiedmann"
SONGWRITER "Frederik Wiedmann/Wiedmann, Frederick"
FLAGS DCP
INDEX 00 01:28:67
FILE "13 - No Redemption.wav" WAVE
INDEX 01 00:00:00
TRACK 14 AUDIO
TITLE "Trust"
PERFORMER "Frederick Wiedmann"
SONGWRITER "Frederik Wiedmann/Wiedmann, Frederick"
FLAGS DCP
INDEX 00 02:18:28
FILE "14 - Trust.wav" WAVE
INDEX 01 00:00:00
TRACK 15 AUDIO
TITLE "Aftermath"
PERFORMER "Frederick Wiedmann"
SONGWRITER "Frederik Wiedmann/Wiedmann, Frederick"
FLAGS DCP
INDEX 00 01:19:08
FILE "15 - Aftermath.wav" WAVE
INDEX 01 00:00:00
TRACK 16 AUDIO
TITLE "Superman's Legacy"
PERFORMER "Frederick Wiedmann"
SONGWRITER "Frederik Wiedmann/Wiedmann, Frederick"
FLAGS DCP
INDEX 00 01:10:23
FILE "16 - Superman's Legacy.wav" WAVE
INDEX 01 00:00:00
TRACK 17 AUDIO
TITLE "Evacuate Metropolis"
PERFORMER "Frederick Wiedmann"
SONGWRITER "Frederik Wiedmann/Wiedmann, Frederick"
FLAGS DCP
INDEX 00 04:20:22
FILE "17 - Evacuate Metropolis.wav" WAVE
INDEX 01 00:00:00
TRACK 18 AUDIO
TITLE "Victor Fries"
PERFORMER "Frederick Wiedmann"
SONGWRITER "Frederik Wiedmann/Wiedmann, Frederick"
FLAGS DCP
INDEX 00 02:05:49
FILE "18 - Victor Fries.wav" WAVE
INDEX 01 00:00:00
TRACK 19 AUDIO
TITLE "All Minds as One"
PERFORMER "Frederick Wiedmann"
SONGWRITER "Frederik Wiedmann/Wiedmann, Frederick"
FLAGS DCP
INDEX 00 01:14:39
FILE "19 - All Minds as One.wav" WAVE
INDEX 01 00:00:00
TRACK 20 AUDIO
TITLE "Magnus"
PERFORMER "Frederick Wiedmann"
SONGWRITER "Frederik Wiedmann/Wiedmann, Frederick"
FLAGS DCP
INDEX 00 03:16:57
FILE "20 - Magnus.wav" WAVE
INDEX 01 00:00:00
TRACK 21 AUDIO
TITLE "Get Out of My House"
PERFORMER "Frederick Wiedmann"
SONGWRITER "Frederik Wiedmann/Wiedmann, Frederick"
FLAGS DCP
INDEX 00 01:28:49
FILE "21 - Get Out of My House.wav" WAVE
INDEX 01 00:00:00
TRACK 22 AUDIO
TITLE "I Love Two People"
PERFORMER "Frederick Wiedmann"
SONGWRITER "Frederik Wiedmann/Wiedmann, Frederick"
FLAGS DCP
INDEX 00 01:42:63
FILE "22 - I Love Two People.wav" WAVE
INDEX 01 00:00:00
TRACK 23 AUDIO
TITLE "The Core"
PERFORMER "Frederick Wiedmann"
SONGWRITER "Frederik Wiedmann/Wiedmann, Frederick"
FLAGS DCP
INDEX 00 01:24:64
FILE "23 - The Core.wav" WAVE
INDEX 01 00:00:00
TRACK 24 AUDIO
TITLE "Be a Real Hero"
PERFORMER "Frederick Wiedmann"
SONGWRITER "Frederik Wiedmann/Wiedmann, Frederick"
FLAGS DCP
INDEX 00 01:37:56
FILE "24 - Be a Real Hero.wav" WAVE
INDEX 01 00:00:00
TRACK 25 AUDIO
TITLE "Justice League: Gods and Monsters"
PERFORMER "Frederick Wiedmann"
SONGWRITER "Frederik Wiedmann/Wiedmann, Frederick"
FLAGS DCP
INDEX 00 03:24:61
FILE "25 - Justice League- Gods and Monsters.wav" WAVE
INDEX 01 00:00:00
TRACK 26 AUDIO
TITLE "Superman - Bomb (Bonus Track)"
PERFORMER "Frederick Wiedmann"
SONGWRITER "Frederik Wiedmann/Wiedmann, Frederick"
FLAGS DCP
INDEX 00 01:10:43
FILE "26 - Superman - Bomb (Bonus Track).wav" WAVE
INDEX 01 00:00:00
picpicpic
Для увеличения картинки щелкните мышкой по превью

Этот торрент недоступен для скачивания без регистрации, однако доступен по публичной magnet-ссылке (источники с публичных трекеров). Перед использованием ссылки прочтите, пожалуйста Пользовательское соглашение, а также как можно дольше оставайтесь на раздаче! Для того, чтобы скачать сам торрент-файл (который видит больше источников), а также для того, чтобы поблагодарить релизера, вам необходимо зарегистрироваться. Если регистрироваться лень - вы можете также попробовать скачать релиз по нашим партнерским ссылкам ниже. Кроме того, зарегистрированным пользователям не показывается всплывающая реклама при скачивании.

[underverse.su].t57440.torrent
Трекер: Зарегистрирован   [ 24.08.2015 23:02 ]  

Статус: проверено (by garry at 26.08.2015 14:19)
Поблагодарили: пока никто не поблагодарил...
Тип торрента: публичный - доступные источники с открытых трекеров: 
Размер: 304 MB (занимает 0,07 DVDR, для записи нужно 1 болванка DVDR/RW)
 
 
Похожие темы
Форум Тема Автор Торрент Отв. Посл. сооб.
OST & Score Movie, TV Show & Series, Game (Lossless) (Score) Лига справедливости: Парадокс источника конфликта / Justice League: The Flashpoint Paradox (by Frederik Wiedmann) (2013) [FLAC (Tracks+.CUE), lossless] garry
3 | 0

0 | 1178

1

22.01.2015 08:53

OST & Score Movie, TV Show & Series, Game (Lossless) (Score) Лига справедливости / Justice League (by Lolita Ritmanis, Michael McCuistion, Kristopher Carter) (2016 (2001–2006)) [FLAC (Tracks+.CUE), lossless] garry
2 | 0

0 | 522

2

14.10.2016 15:45

OST & Score Movie, TV Show & Series, Game (Lossless) (Score) Лига справедливости: Новый барьер / Justice League: The New Frontier (by Kevin Manthei) (2008) [FLAC (Tracks+.CUE), lossless] garry
1 | 0

0 | 1059

1

04.03.2015 20:56

OST & Score Movie, TV Show & Series, Game (Lossless) (Score) Лига Справедливости: Трон Атлантиды / Justice League: Throne of Atlantis (by Frederik Wiedmann) (2015) [FLAC (Tracks), lossless] Web garry
3 | 0

0 | 627

1

13.05.2015 19:24

# OST & Score Movie, TV Show & Series, Game (Lossless) (Score) Лига Справедливости: Кризис двух Миров / Justice League: Crisis on two Earths (by James L. Venable, Christopher Drake) (2010) [FLAC (Tracks), lossless] garry
0 | 1

0 | 631

1

10.03.2017 16:24

OST & Score Movie, TV Show & Series, Game (Lossless) (Score) Лига справедливости: Война / Justice League: War (by Kevin Kliesch) (2014) [FLAC (Tracks), lossless] Web garry
2 | 0

0 | 467

1

29.10.2017 19:31


Яндекс.Метрика powered by Sphinx


В Н И М А Н И Е
Сайт не распространяет и не хранит электронные версии произведений, а лишь бесплатно и без коммерческой выгоды (не требуя взамен платы,
SMS и т.д.) предоставляет доступ к создаваемому пользователями каталогу ссылок на торрент-файлы, которые содержат только списки хеш-сумм.
Убедительная просьба с жалобами обращаться напрямую к пользователю, разместившему торрент файл.

Вверх