Loading...
Error

Луни Тюнз: кролик в бегах / Looney Tunes: Rabbit Run (Джефф Сьергей) [2015 г., мультфильм, комедия, семейный, WEB-DL 1080p] MVO + Original + Subs (Eng)

Статистика раздачи
Размер:  2,93 GB   |    Зарегистрирован:  2 года 9 месяцев   |    Скачан:  14 раз

Полного источника не было: 15 дней

Сидов:  0  |  0 KB/s  ]   Личеров:  0  |  0 KB/s  ]

* - сиды/пиры с внешних источников

   
 
Автор Сообщение

makkol Пол:Муж

13-Авг-2015 22:16

Луни Тюнз: кролик в бегах / Looney Tunes: Rabbit Run


Год выпуска: 2015
Жанр: мультфильм, комедия, семейный
Производство: США [Warner Bros. Animation]
Режиссер: Джефф Сьергей
Роли озвучивали: Фред Армисен, Джефф Бергман, Морис ЛаМарш, Рэйчел Дугай, Джим Рэш, Билли Уэст
Сюжет фильма:
Сюжет мультфильма начинается в центральной Мексике. В штабе петуха Фоггорна Леггорна черепаха Сесил наблюдает за объектом – редчайшим цветком флоро оккульто, который расцветает раз в 200 лет и служит величайшим в мире оружием. Леггорн собирается провести спецоперацию по захвату магического цветка, но в самый ответственный момент кто-то похищает растение…

  • Мировая премьера: 7 июля 2015


Качество видео: WEB-DL 1080p

Продолжительность: 01:14:26
Формат: MKV
Видео: MPEG-4 AVC, 1912x1072 (16:9), 23.976 fps, 4938 kbps
Аудио #1: русский, профессиональный многоголосый закадровый (официальный звук), AC3 2.0, 48 kHz, 192 kbps
Аудио #2: английский, оригинал, AC3 5.1, 48 kHz, 384 kbps
Субтитры: английские вшитые отключаемые

Код:

General
Unique ID                   : 175013699561830780362252795698535193873 (0x83AA69976616BC6FB9F0573D5CD7DD11)
Complete name               :Looney Tunes Rabbit Run 2015 WEB-DL 1080p.mkv
Format                      : Matroska
Format version              : Version 4 / Version 2
File size                   : 2.93 GiB
Duration                    : 1h 14mn
Overall bit rate            : 5 626 Kbps
Encoded date                : UTC 2015-08-13 05:54:04
Writing application         : mkvmerge v8.2.0 ('World of Adventure') 64bit
Writing library             : libebml v1.3.1 + libmatroska v1.4.2
DURATION                    : 01:14:20.416000000
NUMBER_OF_FRAMES            : 139388
NUMBER_OF_BYTES             : 107049984
_STATISTICS_WRITING_APP     : mkvmerge v8.2.0 ('World of Adventure') 64bit
_STATISTICS_WRITING_DATE_UT : 2015-08-13 05:54:04
_STATISTICS_TAGS            : BPS DURATION NUMBER_OF_FRAMES NUMBER_OF_BYTES

Video
ID                          : 1
Format                      : AVC
Format/Info                 : Advanced Video Codec
Format profile              : High@L4
Format settings, CABAC      : Yes
Format settings, ReFrames   : 4 frames
Codec ID                    : V_MPEG4/ISO/AVC
Duration                    : 1h 14mn
Bit rate                    : 4 938 Kbps
Width                       : 1 912 pixels
Height                      : 1 072 pixels
Display aspect ratio        : 16:9
Frame rate mode             : Constant
Frame rate                  : 23.976 fps
Color space                 : YUV
Chroma subsampling          : 4:2:0
Bit depth                   : 8 bits
Scan type                   : Progressive
Bits/(Pixel*Frame)          : 0.100
Stream size                 : 2.57 GiB (88%)
Language                    : English
Default                     : Yes
Forced                      : No
Color range                 : Limited
Color primaries             : BT.709
Transfer characteristics    : BT.709
Matrix coefficients         : BT.709

Audio #1
ID                          : 2
Format                      : AC-3
Format/Info                 : Audio Coding 3
Mode extension              : CM (complete main)
Format settings, Endianness : Big
Codec ID                    : A_AC3
Duration                    : 1h 14mn
Bit rate mode               : Constant
Bit rate                    : 192 Kbps
Channel(s)                  : 2 channels
Channel positions           : Front: L R
Sampling rate               : 48.0 KHz
Compression mode            : Lossy
Stream size                 : 102 MiB (3%)
Language                    : Russian
Default                     : Yes
Forced                      : No

Audio #2
ID                          : 3
Format                      : AC-3
Format/Info                 : Audio Coding 3
Mode extension              : CM (complete main)
Format settings, Endianness : Big
Codec ID                    : A_AC3
Duration                    : 1h 14mn
Bit rate mode               : Constant
Bit rate                    : 384 Kbps
Channel(s)                  : 6 channels
Channel positions           : Front: L C R, Side: L R, LFE
Sampling rate               : 48.0 KHz
Compression mode            : Lossy
Stream size                 : 204 MiB (7%)
Language                    : English
Default                     : No
Forced                      : Yes

Text
ID                          : 4
Format                      : UTF-8
Codec ID                    : S_TEXT/UTF8
Codec ID/Info               : UTF-8 Plain Text
Language                    : English
Default                     : No
Forced                      : No
picpicpicpicpic
Для увеличения картинки щелкните мышкой по превью

Этот торрент недоступен для скачивания без регистрации, однако доступен по публичной magnet-ссылке (источники с публичных трекеров). Перед использованием ссылки прочтите, пожалуйста Пользовательское соглашение, а также как можно дольше оставайтесь на раздаче! Для того, чтобы скачать сам торрент-файл (который видит больше источников), а также для того, чтобы поблагодарить релизера, вам необходимо зарегистрироваться. Если регистрироваться лень - вы можете также попробовать скачать релиз по нашим партнерским ссылкам ниже. Кроме того, зарегистрированным пользователям не показывается всплывающая реклама при скачивании.

[underverse.su].t57029.torrent
Трекер: Зарегистрирован   [ 13.08.2015 22:16 ]  

Статус: проверено (by makkol at 19.08.2015 00:09)
Поблагодарили: пока никто не поблагодарил...
Тип торрента: публичный - доступные источники с открытых трекеров: 
Размер: 2,93 GB (занимает 0,67 DVDR, для записи нужно 1 болванка DVDR/RW)
 
 
Похожие темы
Форум Тема Автор Торрент Отв. Посл. сооб.
Зарубежные мультфильмы Луни Тюнз: кролик в бегах / Looney Tunes: Rabbit Run (Джефф Сьергей) [2015 г., мультфильм, комедия, семейный, WEB-DLRip] MVO + Original makkol
11 | 0

0 | 752

33

13.08.2015 22:01


Яндекс.Метрика powered by Sphinx


В Н И М А Н И Е
Сайт не распространяет и не хранит электронные версии произведений, а лишь бесплатно и без коммерческой выгоды (не требуя взамен платы,
SMS и т.д.) предоставляет доступ к создаваемому пользователями каталогу ссылок на торрент-файлы, которые содержат только списки хеш-сумм.
Убедительная просьба с жалобами обращаться напрямую к пользователю, разместившему торрент файл.

Вверх