Loading...
Error

(Smooth Jazz) The Braxton Brothers - Steppin' Out (1998) [FLAC (Image+.CUE), Lossless]

Статистика раздачи
Размер:  398 MB   |    Зарегистрирован:  2 года 5 месяцев   |    Скачан:  3 раза

Полного источника не было: 28 дней

Сидов:  0  |  0 KB/s  ]   Личеров:  0  |  0 KB/s  ]

* - сиды/пиры с внешних источников

   
 
Автор Сообщение

Бишеп Пол:Муж

05-Авг-2015 13:10

The Braxton Brothers - Steppin' Out

Жанр: Smooth Jazz
Год выпуска: 1998
Источник: CD
Производитель диска: Windham Hill Jazz 01934-11318-2
Аудиокодек: FLAC
Тип рипа: Image+.CUE
Битрейт аудио: lossless
Продолжительность: 00:52:46


Треклист:
01. Sunset Bay
02. Steppin' Out
03. Eventide
04. Someday
05. When Love Comes Around
06. Givin' My Love To You
07. I'm In Love
08. Didn't I Tell Ya?
09. I'll Make Love To You (Album Version)
10. In The Spring
11. Happy Again

Код:

Exact Audio Copy V1.0 beta 1 from 15. November 2010

EAC extraction logfile from 8. February 2012, 19:46

The Braxton Brothers / Steppin' Out

Used drive  : SAMSUNG DVD-ROM SD-616E   Adapter: 3  ID: 0

Read mode               : Secure
Utilize accurate stream : Yes
Defeat audio cache      : Yes
Make use of C2 pointers : No

Read offset correction                      : 12
Overread into Lead-In and Lead-Out          : No
Fill up missing offset samples with silence : Yes
Delete leading and trailing silent blocks   : No
Null samples used in CRC calculations       : Yes
Used interface                              : Native Win32 interface for Win NT & 2000

Used output format : Internal WAV Routines
Sample format      : 44.100 Hz; 16 Bit; Stereo

TOC of the extracted CD

     Track |   Start  |  Length  | Start sector | End sector
    ---------------------------------------------------------
        1  |  0:00.00 |  4:58.40 |         0    |    22389   
        2  |  4:58.40 |  5:01.72 |     22390    |    45036   
        3  | 10:00.37 |  4:48.58 |     45037    |    66694   
        4  | 14:49.20 |  5:08.10 |     66695    |    89804   
        5  | 19:57.30 |  3:57.22 |     89805    |   107601   
        6  | 23:54.52 |  4:55.65 |    107602    |   129791   
        7  | 28:50.42 |  4:44.73 |    129792    |   151164   
        8  | 33:35.40 |  5:08.67 |    151165    |   174331   
        9  | 38:44.32 |  4:44.48 |    174332    |   195679   
       10  | 43:29.05 |  4:23.20 |    195680    |   215424   
       11  | 47:52.25 |  4:54.17 |    215425    |   237491   

Range status and errors

Selected range

     Filename C:\Documents and Settings\Borya\Desktop\brabro\The Braxton Brothers - Steppin' Out.wav

     Peak level 97.2 %
     Extraction speed 0.1 X
     Range quality 99.9 %
     Copy CRC E98EB00B
     Copy OK

No errors occurred

 
AccurateRip summary
 
Track  1  accurately ripped (confidence 2)  [5B4D6376]
Track  2  accurately ripped (confidence 2)  [B8B66082]
Track  3  accurately ripped (confidence 2)  [DEEE593A]
Track  4  accurately ripped (confidence 2)  [90A1463D]
Track  5  accurately ripped (confidence 2)  [C0D7A24F]
Track  6  accurately ripped (confidence 2)  [6835232B]
Track  7  accurately ripped (confidence 2)  [B2C19862]
Track  8  accurately ripped (confidence 2)  [90FA0E45]
Track  9  accurately ripped (confidence 2)  [7D07A390]
Track 10  accurately ripped (confidence 2)  [5A00CAEF]
Track 11  accurately ripped (confidence 2)  [A6B03919]
 
All tracks accurately ripped

End of status report

Код:

REM GENRE "Smooth Jazz"
REM DATE 1998
REM DISCID 840C5E0B
REM COMMENT "ExactAudioCopy v1.0b1"
PERFORMER "The Braxton Brothers"
TITLE "Steppin' Out"
FILE "The Braxton Brothers - Steppin' Out.flac" WAVE
  TRACK 01 AUDIO
    TITLE "Sunset Bay"
    PERFORMER "The Braxton Brothers"
    FLAGS DCP
    INDEX 01 00:00:00
  TRACK 02 AUDIO
    TITLE "Steppin' Out"
    PERFORMER "The Braxton Brothers"
    FLAGS DCP
    INDEX 00 04:56:65
    INDEX 01 04:58:40
  TRACK 03 AUDIO
    TITLE "Eventide"
    PERFORMER "The Braxton Brothers"
    FLAGS DCP
    INDEX 00 09:59:20
    INDEX 01 10:00:37
  TRACK 04 AUDIO
    TITLE "Someday"
    PERFORMER "The Braxton Brothers"
    FLAGS DCP
    INDEX 00 14:47:52
    INDEX 01 14:49:20
  TRACK 05 AUDIO
    TITLE "When Love Comes Around"
    PERFORMER "The Braxton Brothers"
    FLAGS DCP
    INDEX 00 19:56:10
    INDEX 01 19:57:30
  TRACK 06 AUDIO
    TITLE "Givin' My Love To You"
    PERFORMER "The Braxton Brothers"
    FLAGS DCP
    INDEX 00 23:53:22
    INDEX 01 23:54:52
  TRACK 07 AUDIO
    TITLE "I'm In Love"
    PERFORMER "The Braxton Brothers"
    FLAGS DCP
    INDEX 00 28:49:05
    INDEX 01 28:50:42
  TRACK 08 AUDIO
    TITLE "Didn't I Tell Ya?"
    PERFORMER "The Braxton Brothers"
    FLAGS DCP
    INDEX 00 33:33:22
    INDEX 01 33:35:40
  TRACK 09 AUDIO
    TITLE "I'll Make Love To You"
    PERFORMER "The Braxton Brothers"
    FLAGS DCP
    INDEX 00 38:43:00
    INDEX 01 38:44:32
  TRACK 10 AUDIO
    TITLE "In The Spring"
    PERFORMER "The Braxton Brothers"
    FLAGS DCP
    INDEX 00 43:24:53
    INDEX 01 43:29:05
  TRACK 11 AUDIO
    TITLE "Happy Again"
    PERFORMER "The Braxton Brothers"
    FLAGS DCP
    INDEX 00 47:50:42
    INDEX 01 47:52:25

Код:

-----------------------

DON'T MODIFY THIS FILE

-----------------------

PERFORMER: auCDtect Task Manager, ver. 1.5.1RC4 build 1.5.1.5
Copyright (c) 2008-2010 y-soft. All rights reserved
http://y-soft.org

ANALYZER: auCDtect: CD records authenticity detector, version 0.8.2
Copyright (c) 2004 Oleg Berngardt. All rights reserved.
Copyright (c) 2004 Alexander Djourik. All rights reserved.

FILE: The Braxton Brothers - Steppin' Out.flac
  Size: 362833457 Hash: 1AB69C97E3027F9D4B3EAC222D3D0818 Accuracy: -m0
  Conclusion: CDDA 100%
  Signature: 27CB56C2D847EFFFA66B4ECFC151FFBCD8EBFF14

Этот торрент недоступен для скачивания без регистрации, однако доступен по публичной magnet-ссылке (источники с публичных трекеров). Перед использованием ссылки прочтите, пожалуйста Пользовательское соглашение, а также как можно дольше оставайтесь на раздаче! Для того, чтобы скачать сам торрент-файл (который видит больше источников), а также для того, чтобы поблагодарить релизера, вам необходимо зарегистрироваться. Если регистрироваться лень - вы можете также попробовать скачать релиз по нашим партнерским ссылкам ниже. Кроме того, зарегистрированным пользователям не показывается всплывающая реклама при скачивании.

[underverse.su].t56669.torrent
Трекер: Зарегистрирован   [ 05.08.2015 13:10 ]  

Статус: проверено (by Бишеп at 05.08.2015 13:10)
Поблагодарили: пока никто не поблагодарил...
Тип торрента: публичный - доступные источники с открытых трекеров: 
Размер: 398 MB (занимает 0,09 DVDR, для записи нужно 1 болванка DVDR/RW)
 
 
Похожие темы
Форум Тема Автор Торрент Отв. Посл. сооб.
Сборники (Smooth Jazz, Lounge, Easy Listening) VA - Smooth Cocktail, Taste Of Lounge, Vol. 1 (Relaxing Appetizer, ChillOut Session Mojito) (2015) [MP3, 320 kbps CBR] Evgenii82
0 | 0

0 | 959

10

17.01.2015 13:04

Jazz (Smooth Jazz) Jessy J - True Love ( 2009) [MP3, 320 kbps] Needle
0 | 0

0 | 1827

23

17.08.2009 09:44

Jazz (Smooth Jazz, Funk) U-Nam - C'est Le Funk (2014) [FLAC (Image+.CUE), Lossless] Бишеп
0 | 0

0 | 1285

22

31.10.2014 13:34

Jazz (Smooth Jazz) Threestyle (Feat. Magdalena Chovancova) - Smooth Ride (2017) [MP3, 320 kbps CBR] Darkferse
2 | 0

0 | 580

2

19.03.2017 10:24

Jazz (Smooth Jazz) Marcus Anderson - Limited Edition (2017) [MP3, 320 kbps CBR] Darkferse
2 | 0

0 | 486

4

19.03.2017 11:17

Jazz (Smooth Jazz) William Staggers - Late Blossom (2017) [MP3, 320 kbps CBR] Darkferse
1 | 0

0 | 381

3

06.04.2017 16:38

Jazz (Smooth Jazz) Daniel Chia - In The Moment (2017) [MP3, 320 kbps CBR] Darkferse
2 | 0

0 | 380

2

06.04.2017 16:42

Jazz (Smooth Jazz) Gabriel Bello - Steveland (2017) [MP3, 320 kbps CBR] Darkferse
2 | 0

0 | 514

2

23.05.2017 09:40

Jazz (Smooth Jazz) Dexter Tolson - A Different Kind Of Smooth (2017) [MP3, 320 kbps CBR] Darkferse
3 | 0

0 | 422

2

30.05.2017 16:28

Jazz (Smooth Jazz) Jean-Michel Cabrol Jazz 4tet - La Route Bleue (2017) [MP3, 320 kbps CBR] Darkferse
6 | 0

0 | 70

1

12.12.2017 12:59


Яндекс.Метрика powered by Sphinx


В Н И М А Н И Е
Сайт не распространяет и не хранит электронные версии произведений, а лишь бесплатно и без коммерческой выгоды (не требуя взамен платы,
SMS и т.д.) предоставляет доступ к создаваемому пользователями каталогу ссылок на торрент-файлы, которые содержат только списки хеш-сумм.
Убедительная просьба с жалобами обращаться напрямую к пользователю, разместившему торрент файл.

Вверх