Loading...
Error

(Contemporary Jazz) Gavin Harrison - Cheating The Polygraph (2015) [FLAC (Image+.CUE), Lossless]

Статистика раздачи
Размер:  296 MB   |    Зарегистрирован:  2 года 6 месяцев   |    Скачан:  3 раза

Полного источника не было: 6 дней

Сидов:  0  |  0 KB/s  ]   Личеров:  0  |  0 KB/s  ]

* - сиды/пиры с внешних источников

   
 
Автор Сообщение

Бишеп Пол:Муж

28-Июн-2015 15:02

Gavin Harrison - Cheating The Polygraph

Жанр: Contemporary Jazz
Год выпуска: 2015
Источник: CD
Производитель диска: Kscope Music KSCOPE318 IEZP-90
Аудиокодек: FLAC
Тип рипа: Image+.CUE
Битрейт аудио: lossless
Продолжительность: 00:49:10


Треклист:
01. What Happens Now?
02. Sound Of Muzak/So Called Friend
03. The Start Of Something Beautiful
04. Heartattack In A Layby
05. The Pills I'm Taking (From Anesthetize)
06. Hatesong/Halo
07. Cheating The Polygraph/Mother & Child Divided
08. Futile

Код:

Exact Audio Copy V1.0 beta 6 from 9. April 2015

EAC extraction logfile from 22. June 2015, 12:12

Gavin Harrison / Cheating The Polygraph

Used drive  : Optiarc DVD RW AD-5280S   Adapter: 1  ID: 1

Read mode               : Secure
Utilize accurate stream : Yes
Defeat audio cache      : Yes
Make use of C2 pointers : No

Read offset correction                      : 48
Overread into Lead-In and Lead-Out          : No
Fill up missing offset samples with silence : Yes
Delete leading and trailing silent blocks   : No
Null samples used in CRC calculations       : Yes
Used interface                              : Native Win32 interface for Win NT & 2000

Used output format              : User Defined Encoder
Selected bitrate                : 1024 kBit/s
Quality                         : High
Add ID3 tag                     : No
Command line compressor         : C:\Program Files\Exact Audio Copy\flac-1.3.1-win\win32\flac.exe
Additional command line options : -8 -V -T "ARTIST=%artist%" -T "TITLE=%title%" -T "ALBUM=%albumtitle%" -T "DATE=%year%" -T "TRACKNUMBER=%tracknr%" -T "GENRE=%genre%" -T "COMMENT=%comment%" %source% -o %dest%

TOC of the extracted CD

     Track |   Start  |  Length  | Start sector | End sector
    ---------------------------------------------------------
        1  |  0:00.00 |  7:31.42 |         0    |    33866   
        2  |  7:31.42 |  5:55.69 |     33867    |    60560   
        3  | 13:27.36 |  4:47.44 |     60561    |    82129   
        4  | 18:15.05 |  6:00.16 |     82130    |   109145   
        5  | 24:15.21 |  5:03.10 |    109146    |   131880   
        6  | 29:18.31 |  8:16.44 |    131881    |   169124   
        7  | 37:35.00 |  5:29.09 |    169125    |   193808   
        8  | 43:04.09 |  6:04.30 |    193809    |   221138   

Range status and errors

Selected range

     Filename C:\Sket4er\Gavin Harrison - Cheating The Polygraph 2015 flac\Gavin Harrison - Cheating The Polygraph.wav

     Peak level 100.0 %
     Extraction speed 7.2 X
     Range quality 99.9 %
     Test CRC 214DB182
     Copy CRC 214DB182
     Copy OK

No errors occurred

 
AccurateRip summary
 
Track  1  cannot be verified as accurate (confidence 7)  [B0EDBB4B], AccurateRip returned [27B5A7B4]  (AR v2)
Track  2  cannot be verified as accurate (confidence 7)  [1D172744], AccurateRip returned [112B421D]  (AR v2)
Track  3  cannot be verified as accurate (confidence 7)  [EAC4188D], AccurateRip returned [981E5EBC]  (AR v2)
Track  4  cannot be verified as accurate (confidence 7)  [B2E4E74F], AccurateRip returned [2EAB91F3]  (AR v2)
Track  5  cannot be verified as accurate (confidence 7)  [1E9219A3], AccurateRip returned [AE4E6BCC]  (AR v2)
Track  6  cannot be verified as accurate (confidence 7)  [DA3A6B5F], AccurateRip returned [A3192619]  (AR v2)
Track  7  cannot be verified as accurate (confidence 7)  [5E683E76], AccurateRip returned [9A2F374A]  (AR v2)
Track  8  cannot be verified as accurate (confidence 7)  [6C4CB9ED], AccurateRip returned [95CBCAD5]  (AR v2)
 
No tracks could be verified as accurate
You may have a different pressing from the one(s) in the database

End of status report

---- CUETools DB Plugin V2.1.6

[CTDB TOCID: FXXTaZoIW4QMYw9S8Gd3lfLZQOU-] found
Submit result: FXXTaZoIW4QMYw9S8Gd3lfLZQOU- has been confirmed
Track | CTDB Status
  1   | (28/28) Accurately ripped
  2   | (28/28) Accurately ripped
  3   | (28/28) Accurately ripped
  4   | (28/28) Accurately ripped
  5   | (28/28) Accurately ripped
  6   | (28/28) Accurately ripped
  7   | (28/28) Accurately ripped
  8   | (28/28) Accurately ripped

==== Log checksum 51AB4A32166113FB83405C158EB170B8FAB077BD270C7BF83DF6CBA728898AE5 ====

Код:

REM GENRE Jazz
REM DATE 2015
REM DISCID 740B8408
REM COMMENT "ExactAudioCopy v1.0b6"
PERFORMER "Gavin Harrison"
TITLE "Cheating The Polygraph"
FILE "Gavin Harrison - Cheating The Polygraph.flac" WAVE
  TRACK 01 AUDIO
    TITLE "What Happens Now?"
    PERFORMER "Gavin Harrison"
    INDEX 01 00:00:00
  TRACK 02 AUDIO
    TITLE "The Sound Of Muzak / So Called Friend"
    PERFORMER "Gavin Harrison"
    INDEX 00 07:30:45
    INDEX 01 07:31:42
  TRACK 03 AUDIO
    TITLE "Start Of Something Beautiful"
    PERFORMER "Gavin Harrison"
    INDEX 00 13:26:47
    INDEX 01 13:27:36
  TRACK 04 AUDIO
    TITLE "Heart Attack In A Layby"
    PERFORMER "Gavin Harrison"
    INDEX 00 18:13:68
    INDEX 01 18:15:05
  TRACK 05 AUDIO
    TITLE "The Pills I'm Taking (from Anesthetize)"
    PERFORMER "Gavin Harrison"
    INDEX 00 24:13:22
    INDEX 01 24:15:21
  TRACK 06 AUDIO
    TITLE "Hatesong / Halo"
    PERFORMER "Gavin Harrison"
    INDEX 00 29:17:42
    INDEX 01 29:18:31
  TRACK 07 AUDIO
    TITLE "Cheating The Polygraph / Mother & Child Divided"
    PERFORMER "Gavin Harrison"
    INDEX 00 37:33:54
    INDEX 01 37:35:00
  TRACK 08 AUDIO
    TITLE "Futile"
    PERFORMER "Gavin Harrison"
    INDEX 00 43:03:38
    INDEX 01 43:04:09

Код:

-----------------------

DON'T MODIFY THIS FILE

-----------------------

PERFORMER: auCDtect Task Manager, ver. 1.5.1RC4 build 1.5.1.5
Copyright (c) 2008-2010 y-soft. All rights reserved
http://y-soft.org

ANALYZER: auCDtect: CD records authenticity detector, version 0.8.2
Copyright (c) 2004 Oleg Berngardt. All rights reserved.
Copyright (c) 2004 Alexander Djourik. All rights reserved.

FILE: Gavin Harrison - Cheating The Polygraph.flac
  Size: 304922619 Hash: 8005A92B5C3E5CE0DC5EE784572DB28A Accuracy: -m0
  Conclusion: CDDA 100%
  Signature: FFF4B8414452A0CA5CB441187771BE6B8DAA2C4E

Этот торрент недоступен для скачивания без регистрации, однако доступен по публичной magnet-ссылке (источники с публичных трекеров). Перед использованием ссылки прочтите, пожалуйста Пользовательское соглашение, а также как можно дольше оставайтесь на раздаче! Для того, чтобы скачать сам торрент-файл (который видит больше источников), а также для того, чтобы поблагодарить релизера, вам необходимо зарегистрироваться. Если регистрироваться лень - вы можете также попробовать скачать релиз по нашим партнерским ссылкам ниже. Кроме того, зарегистрированным пользователям не показывается всплывающая реклама при скачивании.

[underverse.su].t55549.torrent
Трекер: Зарегистрирован   [ 28.06.2015 15:02 ]  

Статус: проверено (by Бишеп at 28.06.2015 15:02)
Поблагодарили: пока никто не поблагодарил...
Тип торрента: публичный - доступные источники с открытых трекеров: 
Размер: 296 MB (занимает 0,07 DVDR, для записи нужно 1 болванка DVDR/RW)
 
 
Похожие темы
Форум Тема Автор Торрент Отв. Посл. сооб.
Jazz (Contemporary Jazz) Dock In Absolute - Dock In Absolute (2017) [MP3, 320 kbps CBR] Darkferse
3 | 0

0 | 447

1

23.05.2017 08:30

Jazz (Contemporary Jazz, Soul, Hip Hop) Alfa Mist - Antiphon (2017) [MP3, 320 kbps CBR] Darkferse
39 | 1

0 | 543

1

17.05.2017 10:15

Jazz (Contemporary Jazz, Vocal Jazz, Modern Creative) Theo Bleckmann - Elegy (2017) [MP3, 320 kbps CBR] Darkferse
1 | 0

0 | 406

2

26.05.2017 14:13

Jazz (Contemporary Jazz) Kyoto Jazz Sextet - Unity (2017) [MP3, 320 kbps CBR] Darkferse
1 | 0

0 | 306

1

17.06.2017 12:04

Jazz (Contemporary Jazz) Verneri Pohjola - Pekka (2017) [MP3, 320 kbps CBR] Darkferse
2 | 0

0 | 328

1

17.06.2017 12:11

Jazz (Contemporary Jazz) Denys Baptiste - The Late Trane (2017) [MP3, 320 kbps CBR] Darkferse
1 | 1

0 | 194

1

20.06.2017 20:39

Jazz (Contemporary Jazz) Lucia Ianniello - Live At Acuto Jazz (2017) [MP3, 320 kbps CBR] Darkferse
3 | 0

0 | 68

1

12.12.2017 09:48

Jazz (Contemporary Jazz, Free Improvisation) Markus Stockhausen - Far into the Stars (2017) [MP3, 320 kbps CBR] Darkferse
1 | 1

0 | 495

2

27.08.2017 06:39

Jazz (Contemporary Jazz, Classical Crossover, Violin) Naoko Terai - The Standard (2017) [MP3, 320 kbps CBR] Darkferse
11 | 1

0 | 174

1

01.01.2018 22:22

Jazz (Contemporary Jazz, Fusion) Josiah Woodson - Suite Elemental (2017) [MP3, 320 kbps CBR] Darkferse
1 | 2

0 | 54

0

02.01.2018 10:24


Яндекс.Метрика powered by Sphinx


В Н И М А Н И Е
Сайт не распространяет и не хранит электронные версии произведений, а лишь бесплатно и без коммерческой выгоды (не требуя взамен платы,
SMS и т.д.) предоставляет доступ к создаваемому пользователями каталогу ссылок на торрент-файлы, которые содержат только списки хеш-сумм.
Убедительная просьба с жалобами обращаться напрямую к пользователю, разместившему торрент файл.

Вверх