Loading...
Error

Патэма наоборот / Sakasama no Patema / Patema Inverted (Ясухиро Ёсиура) [2013 г., аниме, антиутопия, фантастика, приключения, BDRip 720p] Dub + Original + Subs

Статистика раздачи
Размер:  2,91 GB   |    Зарегистрирован:  2 года 11 месяцев   |    Скачан:  4 раза

Полного источника не было: 9 месяцев

Сидов:  0  |  0 KB/s  ]   Личеров:  0  |  0 KB/s  ]

* - сиды/пиры с внешних источников

   
 
Автор Сообщение

makkol Пол:Муж

17-Июн-2015 23:20

Патэма наоборот / Sakasama no Patema / Patema Inverted
«Нас спасает притяжение»


Год выпуска: 2013
Жанр: аниме, антиутопия, фантастика, приключения
Производство: Япония, Purple Cow Studio
Режиссер: Ясухиро Ёсиура
Роли озвучивали: Юкиё Фудзий, Синъя Фукумацу, Масаюки Като, Нобухико Окамото, Синтару Оохата
Роли дублировали: Александр Фильченко, Андрей Андреев, Василий Марков, Михаил Каданин, Юрий Романов
Сюжет фильма:
В результате некой произошедшей в прошлом катастрофы человечество разделилось на два народа. Для первого народа гравитация действует наоборот и его представители, а также используемые ими вещи падают в небеса. Однако, эти люди живут под землей, поэтому большой угрозы для них эта особенность не представляет. Для второго народа гравитация действует обычным образом и он живет на поверхности земли. Жизни этих двух народов практически не пересекаются и о существовании друг друга большая часть их представителей не знает. Однако, у живущих на поверхности людей есть история о том что в прошлом грешники улетели на небеса. Поэтому в обществе считается недопустимым смотреть на небо и следует направлять свой взгляд на землю.

  • Мировая премьера: 13 июня 2013
  • Российская премьера: 27 марта 2014


Релиз: Лицензия

Качество видео: BDRip 720p

Продолжительность: 01:39:09
Формат: MKV
Видео: MPEG-4 AVC, 1280x720 (16:9), 23.976 fps, 3311 kbps
Аудио #1: русский, дублированный (Reanimedia), AC3 5.1, 48.0 kHz, 448 kbps
Аудио #2: японский, оригинал, AC3 5.1, 48.0 kHz, 448 kbps
Субтитры: русские форсированные + полные вшитые отключаемые

Код:

Общее
Уникальный идентификатор : 214406392219910808228646145846432540392 (0xA14D2B4A6DA6878D810A937BD5C4A6E8)
Полное имя : Sakasama.no.Patema.2013.BDRip.720p.Rus.Jpn.mkv
Формат : Matroska
Версия формата : Version 2
Размер файла : 2,91 Гбайт
Продолжительность : 1 ч. 39 м.
Общий поток : 4206 Кбит/сек
Название фильма : Патэма наоборот / Sakasama no Patema (2013)
Дата кодирования : UTC 2015-04-20 04:35:52
Программа кодирования : mkvmerge v5.8.0 ('No Sleep / Pillow') built on Sep 2 2012 15:37:04
Библиотека кодирования : libebml v1.2.3 + libmatroska v1.3.0

Видео
Идентификатор : 1
Формат : AVC
Формат/Информация : Advanced Video Codec
Профиль формата : High@L4.1
Параметр CABAC формата : Да
Параметр ReFrames формата : 7 кадров
Идентификатор кодека : V_MPEG4/ISO/AVC
Продолжительность : 1 ч. 39 м.
Битрейт : 3311 Кбит/сек
Ширина : 1280 пикселей
Высота : 720 пикселей
Соотношение сторон : 16:9
Режим частоты кадров : Постоянный
Частота кадров : 23,976 кадра/сек
Цветовое пространство : YUV
Субдискретизация насыщенности : 4:2:0
Битовая глубина : 8 бит
Тип развёртки : Прогрессивная
Бит/(Пиксели*Кадры) : 0.150
Размер потока : 2,23 Гбайт (77%)
Заголовок : Release by AlexKa
Библиотека кодирования : x264 core 146 r2538 121396c
Настройки программы : cabac=1 / ref=7 / deblock=1:0:0 / analyse=0x3:0x133 / me=umh / subme=11 / psy=1 / psy_rd=1.00:0.00 / mixed_ref=1 / me_range=32 / chroma_me=1 / trellis=2 / 8x8dct=1 / cqm=0 / deadzone=21,11 / fast_pskip=0 / chroma_qp_offset=-2 / threads=12 / lookahead_threads=3 / sliced_threads=0 / nr=0 / decimate=0 / interlaced=0 / bluray_compat=0 / constrained_intra=0 / bframes=13 / b_pyramid=2 / b_adapt=2 / b_bias=0 / direct=3 / weightb=1 / open_gop=0 / weightp=2 / keyint=240 / keyint_min=23 / scenecut=40 / intra_refresh=0 / rc=2pass / mbtree=0 / bitrate=3311 / ratetol=1.0 / qcomp=0.60 / qpmin=0 / qpmax=69 / qpstep=4 / cplxblur=20.0 / qblur=0.5 / ip_ratio=1.40 / pb_ratio=1.30 / aq=1:1.00
Язык : Japanese

Аудио #1
Идентификатор : 2
Формат : AC-3
Формат/Информация : Audio Coding 3
Расширение режима : CM (complete main)
Параметр Endianness формата : Big
Идентификатор кодека : A_AC3
Продолжительность : 1 ч. 39 м.
Вид битрейта : Постоянный
Битрейт : 448 Кбит/сек
Каналы : 6 каналов
Расположение каналов : Front: L C R, Side: L R, LFE
Частота : 48,0 КГц
Битовая глубина : 16 бит
Метод сжатия : С потерями
Размер потока : 318 Мбайт (11%)
Заголовок : Rus
Язык : Russian

Аудио #2
Идентификатор : 3
Формат : AC-3
Формат/Информация : Audio Coding 3
Расширение режима : CM (complete main)
Параметр Endianness формата : Big
Идентификатор кодека : A_AC3
Продолжительность : 1 ч. 39 м.
Вид битрейта : Постоянный
Битрейт : 448 Кбит/сек
Каналы : 6 каналов
Расположение каналов : Front: L C R, Side: L R, LFE
Частота : 48,0 КГц
Битовая глубина : 16 бит
Метод сжатия : С потерями
Размер потока : 318 Мбайт (11%)
Заголовок : Jpn
Язык : Japanese

Текст #1
Идентификатор : 4
Формат : UTF-8
Идентификатор кодека : S_TEXT/UTF8
Идентификатор кодека/Информация : UTF-8 Plain Text
Заголовок : Rus forced
Язык : Russian

Текст #2
Идентификатор : 5
Формат : UTF-8
Идентификатор кодека : S_TEXT/UTF8
Идентификатор кодека/Информация : UTF-8 Plain Text
Заголовок : Rus
Язык : Russian

Меню
00:00:00.000 : :Chapter 01
00:07:46.883 : :Chapter 02
00:13:11.540 : :Chapter 03
00:21:30.789 : :Chapter 04
00:25:52.551 : :Chapter 05
00:32:01.878 : :Chapter 06
00:37:09.185 : :Chapter 07
00:44:14.526 : :Chapter 08
00:52:14.756 : :Chapter 09
00:56:54.953 : :Chapter 10
01:03:51.577 : :Chapter 11
01:11:01.173 : :Chapter 12
01:19:04.072 : :Chapter 13
01:25:03.098 : :Chapter 14
01:32:39.762 : :Chapter 15
01:35:39.567 : :Chapter 16
01:38:48.005 : :Chapter 17
01:38:49.924 : :Chapter 18
01:39:08.734 : :Chapter 19
picpicpicpicpic
Для увеличения картинки щелкните мышкой по превью

Этот торрент недоступен для скачивания без регистрации, однако доступен по публичной magnet-ссылке (источники с публичных трекеров). Перед использованием ссылки прочтите, пожалуйста Пользовательское соглашение, а также как можно дольше оставайтесь на раздаче! Для того, чтобы скачать сам торрент-файл (который видит больше источников), а также для того, чтобы поблагодарить релизера, вам необходимо зарегистрироваться. Если регистрироваться лень - вы можете также попробовать скачать релиз по нашим партнерским ссылкам ниже. Кроме того, зарегистрированным пользователям не показывается всплывающая реклама при скачивании.

[underverse.su].t55337.torrent
Трекер: Зарегистрирован   [ 17.06.2015 23:20 ]  

Статус: * не проверено
Поблагодарили: пока никто не поблагодарил...
Тип торрента: публичный - доступные источники с открытых трекеров: 
Размер: 2,91 GB (занимает 2/3 DVDR, для записи нужно 1 болванка DVDR/RW)
 
 
Похожие темы
Форум Тема Автор Торрент Отв. Посл. сооб.
* Аниме лицензии Патэма наоборот / Sakasama no Patema / Patema Inverted (Ясухиро Ёсиура) [2013 г., аниме, антиутопия, фантастика, приключения, BDRip] Dub + Original makkol
2 | 0

1 | 1009

8

18.08.2015 14:24

18-Авг-2015 14:12

Топик был перенесен из форума Мультфильмы [HDDVDRip / BDRip / WEB-DL / HDTV 1080/720р] в форум Аниме лицензии HD-Video


makkol
 

Яндекс.Метрика powered by Sphinx


В Н И М А Н И Е
Сайт не распространяет и не хранит электронные версии произведений, а лишь бесплатно и без коммерческой выгоды (не требуя взамен платы,
SMS и т.д.) предоставляет доступ к создаваемому пользователями каталогу ссылок на торрент-файлы, которые содержат только списки хеш-сумм.
Убедительная просьба с жалобами обращаться напрямую к пользователю, разместившему торрент файл.

Вверх