Loading...
Error

(Jazz-Fusion) Spyro Gyra - The Rhinebeck Sessions (2013) [FLAC (Tracks+.CUE), Lossless]

Статистика раздачи
Размер:  400 MB   |    Зарегистрирован:  2 года 8 месяцев   |    Скачан:  5 раз

Полного источника не было: 1 месяц 6 дней

Сидов:  0  |  0 KB/s  ]   Личеров:  0  |  0 KB/s  ]

* - сиды/пиры с внешних источников

   
 
Автор Сообщение

Бишеп Пол:Муж

21-Май-2015 15:06

Spyro Gyra - The Rhinebeck Sessions

Жанр: Jazz-Fusion
Год выпуска: 2013
Источник: CD
Производитель диска: Crosseyed Bear Productions - CEB 1045
Аудиокодек: FLAC
Тип рипа: Tracks+.CUE
Битрейт аудио: lossless
Продолжительность: 00:57:38


Треклист:
01. Serious Delivery
02. Wishful Thinking
03. Not Unlike That
04. Sorbet
05. I Know What You Mingus
06. Off The Cuff
07. Clubhouse Jam
08. Odds Get Even
09. Who Knew!

Код:

Exact Audio Copy V1.0 beta 3 from 29. August 2011

EAC extraction logfile from 30. October 2013, 16:58

Spyro Gyra / The Rhinebeck Sessions

Used drive  : HL-DT-STDVDRAM GH20NS10   Adapter: 2  ID: 1

Read mode               : Secure
Utilize accurate stream : Yes
Defeat audio cache      : Yes
Make use of C2 pointers : No

Read offset correction                      : 667
Overread into Lead-In and Lead-Out          : No
Fill up missing offset samples with silence : Yes
Delete leading and trailing silent blocks   : No
Null samples used in CRC calculations       : Yes
Used interface                              : Native Win32 interface for Win NT & 2000
Gap handling                                : Appended to previous track

Used output format              : User Defined Encoder
Selected bitrate                : 1024 kBit/s
Quality                         : High
Add ID3 tag                     : No
Command line compressor         : C:\Program Files\Exact Audio Copy\Flac\flac.exe
Additional command line options : -8 -V -T "ARTIST=%artist%" -T "TITLE=%title%" -T "ALBUM=%albumtitle%" -T "DATE=%year%" -T "TRACKNUMBER=%tracknr%" -T "TOTALTRACKS=%numtracks%" -T "GENRE=%genre%" -T "ALBUMARTIST=%albumartist%" -T "ALBUM ARTIST=%albumartist%" -T "COMMENT=EAC Secure Mode, Test & Copy, AccurateRip, FLAC -8" %source%

TOC of the extracted CD

     Track |   Start  |  Length  | Start sector | End sector
    ---------------------------------------------------------
        1  |  0:00.00 |  8:12.00 |         0    |    36899   
        2  |  8:12.00 |  5:28.60 |     36900    |    61559   
        3  | 13:40.60 |  6:12.28 |     61560    |    89487   
        4  | 19:53.13 |  7:25.01 |     89488    |   122863   
        5  | 27:18.14 |  7:37.12 |    122864    |   157150   
        6  | 34:55.26 |  6:07.34 |    157151    |   184709   
        7  | 41:02.60 |  5:16.66 |    184710    |   208475   
        8  | 46:19.51 |  5:39.57 |    208476    |   233957   
        9  | 51:59.33 |  5:38.45 |    233958    |   259352   

Track  1

     Filename D:\Spyro Gyra - The Rhinebeck Sessions (2013) [FLAC]\01 - Serious Delivery.wav

     Pre-gap length  0:00:02.00

     Peak level 100.0 %
     Extraction speed 4.7 X
     Track quality 99.9 %
     Test CRC B599B978
     Copy CRC B599B978
     Track not present in AccurateRip database
     Copy OK

Track  2

     Filename D:\Spyro Gyra - The Rhinebeck Sessions (2013) [FLAC]\02 - Wishful Thinking.wav

     Pre-gap length  0:00:01.00

     Peak level 100.0 %
     Extraction speed 5.6 X
     Track quality 100.0 %
     Test CRC EC488D81
     Copy CRC EC488D81
     Track not present in AccurateRip database
     Copy OK

Track  3

     Filename D:\Spyro Gyra - The Rhinebeck Sessions (2013) [FLAC]\03 - Not Unlike That.wav

     Pre-gap length  0:00:01.00

     Peak level 100.0 %
     Extraction speed 6.2 X
     Track quality 100.0 %
     Test CRC FC18FE84
     Copy CRC FC18FE84
     Track not present in AccurateRip database
     Copy OK

Track  4

     Filename D:\Spyro Gyra - The Rhinebeck Sessions (2013) [FLAC]\04 - Sorbet.wav

     Pre-gap length  0:00:01.00

     Peak level 100.0 %
     Extraction speed 6.8 X
     Track quality 100.0 %
     Test CRC 7F1C236E
     Copy CRC 7F1C236E
     Track not present in AccurateRip database
     Copy OK

Track  5

     Filename D:\Spyro Gyra - The Rhinebeck Sessions (2013) [FLAC]\05 - I Know What You Mingus.wav

     Pre-gap length  0:00:01.00

     Peak level 100.0 %
     Extraction speed 6.3 X
     Track quality 99.9 %
     Test CRC 096B5389
     Copy CRC 096B5389
     Track not present in AccurateRip database
     Copy OK

Track  6

     Filename D:\Spyro Gyra - The Rhinebeck Sessions (2013) [FLAC]\06 - Off The Cuff.wav

     Pre-gap length  0:00:01.00

     Peak level 100.0 %
     Extraction speed 6.7 X
     Track quality 100.0 %
     Test CRC 770A52B9
     Copy CRC 770A52B9
     Track not present in AccurateRip database
     Copy OK

Track  7

     Filename D:\Spyro Gyra - The Rhinebeck Sessions (2013) [FLAC]\07 - Clubhouse Jam.wav

     Pre-gap length  0:00:01.00

     Peak level 100.0 %
     Extraction speed 5.5 X
     Track quality 100.0 %
     Test CRC 869D3452
     Copy CRC 869D3452
     Track not present in AccurateRip database
     Copy OK

Track  8

     Filename D:\Spyro Gyra - The Rhinebeck Sessions (2013) [FLAC]\08 - Odds Get Even.wav

     Peak level 100.0 %
     Extraction speed 7.0 X
     Track quality 100.0 %
     Test CRC AE08EAD8
     Copy CRC AE08EAD8
     Track not present in AccurateRip database
     Copy OK

Track  9

     Filename D:\Spyro Gyra - The Rhinebeck Sessions (2013) [FLAC]\09 - Who Knew!.wav

     Pre-gap length  0:00:01.00

     Peak level 100.0 %
     Extraction speed 8.1 X
     Track quality 100.0 %
     Test CRC 761986E3
     Copy CRC 761986E3
     Track not present in AccurateRip database
     Copy OK

None of the tracks are present in the AccurateRip database

No errors occurred

End of status report

==== Log checksum D55A81A58B6F7413ABDFAA99EA4374BDCED247833F4888A6FFC86405D9E59157 ====

Код:

REM GENRE Fusion
REM DATE 2013
REM DISCID 750D8209
REM COMMENT "ExactAudioCopy v1.0b3"
PERFORMER "Spyro Gyra"
TITLE "The Rhinebeck Sessions"
FILE "01 - Serious Delivery.wav" WAVE
  TRACK 01 AUDIO
    TITLE "Serious Delivery"
    PERFORMER "Spyro Gyra"
    INDEX 01 00:00:00
  TRACK 02 AUDIO
    TITLE "Wishful Thinking"
    PERFORMER "Spyro Gyra"
    INDEX 00 08:11:00
FILE "02 - Wishful Thinking.wav" WAVE
    INDEX 01 00:00:00
  TRACK 03 AUDIO
    TITLE "Not Unlike That"
    PERFORMER "Spyro Gyra"
    INDEX 00 05:27:60
FILE "03 - Not Unlike That.wav" WAVE
    INDEX 01 00:00:00
  TRACK 04 AUDIO
    TITLE "Sorbet"
    PERFORMER "Spyro Gyra"
    INDEX 00 06:11:28
FILE "04 - Sorbet.wav" WAVE
    INDEX 01 00:00:00
  TRACK 05 AUDIO
    TITLE "I Know What You Mingus"
    PERFORMER "Spyro Gyra"
    INDEX 00 07:24:01
FILE "05 - I Know What You Mingus.wav" WAVE
    INDEX 01 00:00:00
  TRACK 06 AUDIO
    TITLE "Off The Cuff"
    PERFORMER "Spyro Gyra"
    INDEX 00 07:36:12
FILE "06 - Off The Cuff.wav" WAVE
    INDEX 01 00:00:00
  TRACK 07 AUDIO
    TITLE "Clubhouse Jam"
    PERFORMER "Spyro Gyra"
    INDEX 00 06:06:34
FILE "07 - Clubhouse Jam.wav" WAVE
    INDEX 01 00:00:00
FILE "08 - Odds Get Even.wav" WAVE
  TRACK 08 AUDIO
    TITLE "Odds Get Even"
    PERFORMER "Spyro Gyra"
    INDEX 01 00:00:00
  TRACK 09 AUDIO
    TITLE "Who Knew!"
    PERFORMER "Spyro Gyra"
    INDEX 00 05:38:57
FILE "09 - Who Knew!.wav" WAVE
    INDEX 01 00:00:00

Этот торрент недоступен для скачивания без регистрации, однако доступен по публичной magnet-ссылке (источники с публичных трекеров). Перед использованием ссылки прочтите, пожалуйста Пользовательское соглашение, а также как можно дольше оставайтесь на раздаче! Для того, чтобы скачать сам торрент-файл (который видит больше источников), а также для того, чтобы поблагодарить релизера, вам необходимо зарегистрироваться. Если регистрироваться лень - вы можете также попробовать скачать релиз по нашим партнерским ссылкам ниже. Кроме того, зарегистрированным пользователям не показывается всплывающая реклама при скачивании.

[underverse.su].t54744.torrent
Трекер: Зарегистрирован   [ 21.05.2015 15:06 ]  

Статус: проверено (by Бишеп at 21.05.2015 15:06)
Поблагодарили: 2 человека
Тип торрента: публичный - доступные источники с открытых трекеров: 
Размер: 400 MB (занимает 0,09 DVDR, для записи нужно 1 болванка DVDR/RW)
 
 

Яндекс.Метрика powered by Sphinx


В Н И М А Н И Е
Сайт не распространяет и не хранит электронные версии произведений, а лишь бесплатно и без коммерческой выгоды (не требуя взамен платы,
SMS и т.д.) предоставляет доступ к создаваемому пользователями каталогу ссылок на торрент-файлы, которые содержат только списки хеш-сумм.
Убедительная просьба с жалобами обращаться напрямую к пользователю, разместившему торрент файл.

Вверх