Loading...
Error

(Alternative Rock) АнимациЯ - Продано не всЁ (2013) [FLAC (Tracks+.CUE), Lossless]

Статистика раздачи
Размер:  346 MB   |    Зарегистрирован:  3 года 3 месяца   |    Скачан:  4 раза

Полного источника не было: 6 дней

Сидов:  0  |  0 KB/s  ]   Личеров:  0  |  0 KB/s  ]

* - сиды/пиры с внешних источников

   
 
Автор Сообщение

Бишеп Пол:Муж

27-Фев-2015 06:13

АнимациЯ - Продано не всЁ

Жанр: Alternative Rock
Год выпуска: 2013
Источник: CD
Производитель диска: Navigator Records - NR 0413 CDp
Аудиокодек: FLAC
Тип рипа: Tracks+.CUE
Битрейт аудио: lossless
Продолжительность: 00:47:47


Треклист:
01. Псих
02. Спички
03. Если война
04. Ванька
05. Черта
06. Родина
07. Всё простится
08. Дневник
09. Точка отсчёта
10. Питерская
11. Прелесть
12. Холодильник
13. Чай
14. Русская (Bonus)

Exact Audio Copy V1.0 beta 3 from 29. August 2011

EAC extraction logfile from 7. August 2014, 23:18

АнимациЯ / Продано не всЁ

Used drive : MATSHITADVD-RAM UJ8DB Adapter: 0 ID: 0

Read mode : Secure
Utilize accurate stream : Yes
Defeat audio cache : Yes
Make use of C2 pointers : No

Read offset correction : 6
Overread into Lead-In and Lead-Out : No
Fill up missing offset samples with silence : Yes
Delete leading and trailing silent blocks : No
Null samples used in CRC calculations : Yes
Used interface : Native Win32 interface for Win NT & 2000
Gap handling : Appended to previous track

Used output format : User Defined Encoder
Selected bitrate : 896 kBit/s
Quality : High
Add ID3 tag : No
Command line compressor : C:\Program Files (x86)\Exact Audio Copy\FLAC\flac.exe
Additional command line options : -V -8 -T "Genre=%genre%" -T "Artist=%artist%" -T "Title=%title%" -T "Album=%albumtitle%" -T "Date=%year%" -T "Tracknumber=%tracknr%" -T "Comment=%comment%" %source%

TOC of the extracted CD

Track | Start | Length | Start sector | End sector
---------------------------------------------------------
1 | 0:00.00 | 3:56.54 | 0 | 17753
2 | 3:56.54 | 2:45.06 | 17754 | 30134
3 | 6:41.60 | 4:13.26 | 30135 | 49135
4 | 10:55.11 | 2:40.55 | 49136 | 61190
5 | 13:35.66 | 2:33.21 | 61191 | 72686
6 | 16:09.12 | 2:52.64 | 72687 | 85650
7 | 19:02.01 | 3:47.43 | 85651 | 102718
8 | 22:49.44 | 3:41.68 | 102719 | 119361
9 | 26:31.37 | 3:04.68 | 119362 | 133229
10 | 29:36.30 | 3:04.27 | 133230 | 147056
11 | 32:40.57 | 4:39.38 | 147057 | 168019
12 | 37:20.20 | 3:20.28 | 168020 | 183047
13 | 40:40.48 | 4:12.26 | 183048 | 201973
14 | 44:52.74 | 2:53.54 | 201974 | 215002

Track 1

Filename F:\CDDA\АнимациЯ - Продано не всЁ - 2013-CD-FLAC\01. Псих.wav

Pre-gap length 0:00:02.00

Peak level 96.6 %
Extraction speed 2.4 X
Track quality 99.9 %
Test CRC ABE24216
Copy CRC ABE24216
Accurately ripped (confidence 2) [9CAF061B] (AR v2)
Copy OK

Track 2

Filename F:\CDDA\АнимациЯ - Продано не всЁ - 2013-CD-FLAC\02. Спички.wav

Pre-gap length 0:00:01.62

Peak level 96.6 %
Extraction speed 2.9 X
Track quality 100.0 %
Test CRC C2BBD0B6
Copy CRC C2BBD0B6
Accurately ripped (confidence 2) [F185C9B9] (AR v2)
Copy OK

Track 3

Filename F:\CDDA\АнимациЯ - Продано не всЁ - 2013-CD-FLAC\03. Если война.wav

Pre-gap length 0:00:01.62

Peak level 96.6 %
Extraction speed 3.3 X
Track quality 100.0 %
Test CRC 8044DFCC
Copy CRC 8044DFCC
Accurately ripped (confidence 2) [D8F57335] (AR v2)
Copy OK

Track 4

Filename F:\CDDA\АнимациЯ - Продано не всЁ - 2013-CD-FLAC\04. Ванька.wav

Pre-gap length 0:00:01.62

Peak level 96.6 %
Extraction speed 3.2 X
Track quality 100.0 %
Test CRC 4C0C4F11
Copy CRC 4C0C4F11
Accurately ripped (confidence 2) [F653C92E] (AR v2)
Copy OK

Track 5

Filename F:\CDDA\АнимациЯ - Продано не всЁ - 2013-CD-FLAC\05. Черта.wav

Pre-gap length 0:00:01.62

Peak level 96.6 %
Extraction speed 3.3 X
Track quality 100.0 %
Test CRC 0B7BE043
Copy CRC 0B7BE043
Accurately ripped (confidence 2) [938A2EBA] (AR v2)
Copy OK

Track 6

Filename F:\CDDA\АнимациЯ - Продано не всЁ - 2013-CD-FLAC\06. Родина.wav

Pre-gap length 0:00:01.62

Peak level 96.6 %
Extraction speed 3.6 X
Track quality 100.0 %
Test CRC 2006F739
Copy CRC 2006F739
Accurately ripped (confidence 2) [FF5D5DAF] (AR v2)
Copy OK

Track 7

Filename F:\CDDA\АнимациЯ - Продано не всЁ - 2013-CD-FLAC\07. Всё простится.wav

Pre-gap length 0:00:01.62

Peak level 96.6 %
Extraction speed 3.9 X
Track quality 100.0 %
Test CRC E2D4DE97
Copy CRC E2D4DE97
Accurately ripped (confidence 2) [7BC1C984] (AR v2)
Copy OK

Track 8

Filename F:\CDDA\АнимациЯ - Продано не всЁ - 2013-CD-FLAC\08. Дневник.wav

Pre-gap length 0:00:01.62

Peak level 96.6 %
Extraction speed 4.1 X
Track quality 100.0 %
Test CRC CEAD99D9
Copy CRC CEAD99D9
Accurately ripped (confidence 2) [A2F1B46B] (AR v2)
Copy OK

Track 9

Filename F:\CDDA\АнимациЯ - Продано не всЁ - 2013-CD-FLAC\09. Точка отсчёта.wav

Pre-gap length 0:00:01.62

Peak level 96.6 %
Extraction speed 3.5 X
Track quality 99.9 %
Test CRC 84E047C8
Copy CRC 84E047C8
Accurately ripped (confidence 2) [8AEE0C8D] (AR v2)
Copy OK

Track 10

Filename F:\CDDA\АнимациЯ - Продано не всЁ - 2013-CD-FLAC\10. Питерская.wav

Pre-gap length 0:00:01.62

Peak level 96.6 %
Extraction speed 4.3 X
Track quality 100.0 %
Test CRC 35957328
Copy CRC 35957328
Accurately ripped (confidence 2) [AC0E2F1A] (AR v2)
Copy OK

Track 11

Filename F:\CDDA\АнимациЯ - Продано не всЁ - 2013-CD-FLAC\11. Прелесть.wav

Pre-gap length 0:00:01.62

Peak level 96.6 %
Extraction speed 4.2 X
Track quality 99.9 %
Test CRC 4A4BFEE3
Copy CRC 4A4BFEE3
Accurately ripped (confidence 2) [CA523778] (AR v2)
Copy OK

Track 12

Filename F:\CDDA\АнимациЯ - Продано не всЁ - 2013-CD-FLAC\12. Холодильник.wav

Pre-gap length 0:00:01.62

Peak level 96.6 %
Extraction speed 4.6 X
Track quality 100.0 %
Test CRC 1500C3BC
Copy CRC 1500C3BC
Accurately ripped (confidence 2) [25FFB23C] (AR v2)
Copy OK

Track 13

Filename F:\CDDA\АнимациЯ - Продано не всЁ - 2013-CD-FLAC\13. Чай.wav

Pre-gap length 0:00:01.62

Peak level 96.6 %
Extraction speed 5.0 X
Track quality 100.0 %
Test CRC 0497C4F7
Copy CRC 0497C4F7
Accurately ripped (confidence 2) [61FA57BA] (AR v2)
Copy OK

Track 14

Filename F:\CDDA\АнимациЯ - Продано не всЁ - 2013-CD-FLAC\14. Русская [bonus].wav

Pre-gap length 0:00:01.62

Peak level 96.6 %
Extraction speed 4.8 X
Track quality 100.0 %
Test CRC DF791D84
Copy CRC DF791D84
Accurately ripped (confidence 2) [B2F61D34] (AR v2)
Copy OK

All tracks accurately ripped

No errors occurred

End of status report

---- CUETools DB Plugin V2.1.4

[CTDB TOCID: ls3ovCYpp6Af1rDpQ9_gArnDCTc-] found
Submit result: already submitted
Track | CTDB Status
1 | (3/3) Accurately ripped
2 | (3/3) Accurately ripped
3 | (3/3) Accurately ripped
4 | (3/3) Accurately ripped
5 | (3/3) Accurately ripped
6 | (3/3) Accurately ripped
7 | (3/3) Accurately ripped
8 | (3/3) Accurately ripped
9 | (3/3) Accurately ripped
10 | (3/3) Accurately ripped
11 | (3/3) Accurately ripped
12 | (3/3) Accurately ripped
13 | (3/3) Accurately ripped
14 | (3/3) Accurately ripped

==== Log checksum CE3E47C7A915F4B680128D99B218060B070C727497EEC4FE2947BA2361D623FF ====

REM GENRE Рок
REM DATE 2013
REM DISCID C50B320E
REM COMMENT "[ Navigator Records | NR 0413 CDp ]"
PERFORMER "АнимациЯ"
TITLE "Продано не всЁ"
FILE "01. Псих.wav" WAVE
TRACK 01 AUDIO
TITLE "Псих"
PERFORMER "АнимациЯ"
ISRC RUB311300401
INDEX 01 00:00:00
TRACK 02 AUDIO
TITLE "Спички"
PERFORMER "АнимациЯ"
ISRC RUB311300402
INDEX 00 03:54:67
FILE "02. Спички.wav" WAVE
INDEX 01 00:00:00
TRACK 03 AUDIO
TITLE "Если война"
PERFORMER "АнимациЯ"
ISRC RUB311300403
INDEX 00 02:43:19
FILE "03. Если война.wav" WAVE
INDEX 01 00:00:00
TRACK 04 AUDIO
TITLE "Ванька"
PERFORMER "АнимациЯ"
ISRC RUB311300404
INDEX 00 04:11:39
FILE "04. Ванька.wav" WAVE
INDEX 01 00:00:00
TRACK 05 AUDIO
TITLE "Черта"
PERFORMER "АнимациЯ"
ISRC RUB311300405
INDEX 00 02:38:68
FILE "05. Черта.wav" WAVE
INDEX 01 00:00:00
TRACK 06 AUDIO
TITLE "Родина"
PERFORMER "АнимациЯ"
ISRC RUB311300406
INDEX 00 02:31:34
FILE "06. Родина.wav" WAVE
INDEX 01 00:00:00
TRACK 07 AUDIO
TITLE "Всё простится"
PERFORMER "АнимациЯ"
ISRC RUB311300407
INDEX 00 02:51:02
FILE "07. Всё простится.wav" WAVE
INDEX 01 00:00:00
TRACK 08 AUDIO
TITLE "Дневник"
PERFORMER "АнимациЯ"
ISRC RUB311300408
INDEX 00 03:45:56
FILE "08. Дневник.wav" WAVE
INDEX 01 00:00:00
TRACK 09 AUDIO
TITLE "Точка отсчёта"
PERFORMER "АнимациЯ"
ISRC RUB311300409
INDEX 00 03:40:06
FILE "09. Точка отсчёта.wav" WAVE
INDEX 01 00:00:00
TRACK 10 AUDIO
TITLE "Питерская"
PERFORMER "АнимациЯ"
ISRC RUB311300410
INDEX 00 03:03:06
FILE "10. Питерская.wav" WAVE
INDEX 01 00:00:00
TRACK 11 AUDIO
TITLE "Прелесть"
PERFORMER "АнимациЯ"
ISRC RUB311300411
INDEX 00 03:02:40
FILE "11. Прелесть.wav" WAVE
INDEX 01 00:00:00
TRACK 12 AUDIO
TITLE "Холодильник"
PERFORMER "АнимациЯ"
ISRC RUB311300412
INDEX 00 04:37:51
FILE "12. Холодильник.wav" WAVE
INDEX 01 00:00:00
TRACK 13 AUDIO
TITLE "Чай"
PERFORMER "АнимациЯ"
ISRC RUB311300413
INDEX 00 03:18:41
FILE "13. Чай.wav" WAVE
INDEX 01 00:00:00
TRACK 14 AUDIO
TITLE "Русская [bonus]"
PERFORMER "АнимациЯ"
ISRC RUB311300414
INDEX 00 04:10:39
FILE "14. Русская [bonus].wav" WAVE
INDEX 01 00:00:00

Этот торрент недоступен для скачивания без регистрации, однако доступен по публичной magnet-ссылке (источники с публичных трекеров). Перед использованием ссылки прочтите, пожалуйста Пользовательское соглашение, а также как можно дольше оставайтесь на раздаче! Для того, чтобы скачать сам торрент-файл (который видит больше источников), а также для того, чтобы поблагодарить релизера, вам необходимо зарегистрироваться. Если регистрироваться лень - вы можете также попробовать скачать релиз по нашим партнерским ссылкам ниже. Кроме того, зарегистрированным пользователям не показывается всплывающая реклама при скачивании.

[underverse.su].t51727.torrent
Трекер: Зарегистрирован   [ 27.02.2015 06:13 ]  

Статус: проверено (by Бишеп at 27.02.2015 06:14)
Поблагодарили: пока никто не поблагодарил...
Тип торрента: публичный - доступные источники с открытых трекеров: 
Размер: 346 MB (занимает 0,08 DVDR, для записи нужно 1 болванка DVDR/RW)
 
 
Похожие темы
Форум Тема Автор Торрент Отв. Посл. сооб.
Зарубежная Pop Музыка (Alternative Pop, Neo Soul, Indie) Amanda Jenssen - Sanger fran on (2015) [MP3, 320 kbps] 90ytr90
2 | 0

0 | 1067

3

23.03.2015 19:02

Зарубежная Pop Музыка (Alternative, Indie) Anna of the North - Lovers (2017) [MP3, 320 kbps CBR] Darkferse
3 | 0

0 | 675

4

13.09.2017 08:47

Зарубежный Hard, Progressive, Soft, Melodic, AOR, Folk, Classic Rock (Alternative Rock / Progressive Rock) Muse - The 2nd Law (2012) [MP3, 320 kbps] Jimmy
1 | 0

0 | 1291

13

27.09.2012 04:30

Зарубежный Black, Death, Heavy, Thrash, Power, Folk, Gothic Metal (Alternative Metal) This Tragic Day - This Tragic Day (2012) [MP3, 320 kbps] NiiggazCPT
1 | 0

0 | 1482

4

28.10.2012 07:21

Зарубежный Punk, Hardcore, Grunge, Alternative (Alternative) The Killers - Discography (2004-2013) [iTunes AAC M4A, 256 kbps VBR] Web garry
6 | 15

0 | 5824

4

20.06.2009 12:07

Зарубежный Punk, Hardcore, Grunge, Alternative (Alternative, Pop-Punk, Female Vocal) We Are the In Crowd - Weird Kids [Deluxe Edition] (2014) [MP3, 320 kbps] Jimmy
3 | 0

0 | 1112

3

23.04.2014 15:58

Зарубежный Punk, Hardcore, Grunge, Alternative (Alternative, Pop Punk, Emo) Fireworks - (Oh), Common Life (2014) [MP3, 320 kbps] Jimmy
0 | 0

0 | 893

4

23.04.2014 15:55

Зарубежный Punk, Hardcore, Grunge, Alternative (Alternative/Progressive Rock) 30 Seconds To Mars - This Is War (Deluxe Version) (2010) [MP3, 320 kbps] puzzikat
1 | 0

0 | 1616

6

14.02.2011 18:04

Зарубежный Punk, Hardcore, Grunge, Alternative (Alternative Rock, Hard Rock) Goodbye June - Magic Valley (2017) [MP3, 320 kbps CBR] Darkferse
7 | 0

0 | 668

2

22.05.2017 19:04

Зарубежный Punk, Hardcore, Grunge, Alternative (Alternative Rock) The Cranberries - Roses (2012) [MP3, 320 kbps] Jimmy
3 | 1

1 | 1683

10

18.02.2012 17:22


Яндекс.Метрика powered by Sphinx


В Н И М А Н И Е
Сайт не распространяет и не хранит электронные версии произведений, а лишь бесплатно и без коммерческой выгоды (не требуя взамен платы,
SMS и т.д.) предоставляет доступ к создаваемому пользователями каталогу ссылок на торрент-файлы, которые содержат только списки хеш-сумм.
Убедительная просьба с жалобами обращаться напрямую к пользователю, разместившему торрент файл.

Вверх