Loading...
Error

(Trance) Вадим Жуков - O (2009) [FLAC (Tracks+.CUE), 800-1000 kbps]

Статистика раздачи
Размер:  424 MB   |    Зарегистрирован:  8 лет 10 месяцев   |    Скачан:  15 раз

Полного источника не было: 7 лет 1 месяц

Сидов:  0  |  0 KB/s  ]   Личеров:  0  |  0 KB/s  ]

* - сиды/пиры с внешних источников

   
 
Автор Сообщение

yaha Пол:Муж

21-Июл-2009 12:35

Вадим Жуков - Ø

Жанр: Trance
Год выпуска: 2009
Производитель диска: Freestyle Records
Аудиокодек: FLAC
Тип рипа: Tracks+.CUE
Битрейт аудио: 800-1000 kbps
Продолжительность: 01:05:51
Треклист:

01. Wake Up (5:58)
02. Follow Me (feat. Anna Heart) (6:32)
03. Ninety Nine (6:51)
04. Save Me (6:39)
05. Don't Cry (9:39)
06. Ø (5:17)
07. Universum (7:34)
08. Rain Of Stars (5:15)
09. Alive (feat. Laura Cyganik) (6:12)
10. Let The Whole World Know (5:49)
Долгожданный второй студийный альбом талантливого российского транс-продюссера Вадима Жукова, взорвашего в 2005 году весь мир своим хитом Moscow Morning. Его треки играли самые популярные ди-джеи в мире: Армин ван Бурен, Ферри Корстен, Above&Beyond и многие другие. После долгих раздумий и предложений от западных лейблов, Вадим принимает решение выпустить альбом бесплатно через официальный сайт.

Альбом "Ø (Зеро)" — это попытка начать всё заново. переосмыслить своё прошлое и заглянуть в будущее. Присоединяйтесь!

Осенью 2009 года ожидается полноценный тираж на CD.

Web:
http://vadimzhukov.com
http://vadimzhukov.pdj.ru
Рецензия на альбом человека под ником nafeGg

Wake Up — Диск открывает шум, который мы можем вспомнить, если вставим компакт-диск с программой в обычный audio cd-плеер. После минуты помех доносится шепот, который будит всю эту семидесятиминутную махину, и она заводится. Не лучший первый трек, но, вероятно, я чего-то не понимаю пока. Вадим по какой-то причине ставит его первым, хотя тьюн отличается от всех прочих по стилю. Новое начало? Не знаю. На первый взгляд трек кажется просадным, но я уверен что это впечатление обманчиво. Может быть кто-то мне объяснит, в чём соль, и я дозрею позже. 5 / 10

Follow Me — Потенциальный хит-сингл альбома. Яркий и заводной трек со звучанием, которое полностью соответствует названию — трек увлекает нас за собой в мир нового альбома Вадима Жукова. Казалось бы, вот, с него-то и надо было начинать, но у Вадима, вероятно, иные представления о строении диска — решать ему. Прекрасный вокал Анны Харт перемешивается с основным синтом. Очень понравился отрывистый металический звучёк, который добавляется на 1:44 и после фразы "the place where you be free" (3:29), он будет там повторятся иногда — отличная изюминка, оживляющая атмосферу.
9 / 10

Ninety Nine — Первый жёсткий и мрачный трек на новом альбоме. Построен на рычащем гитарном синтезаторе. В середине трека традиционный для электронной музыки приём с применением скважности, который я для себя называю эффектом Motion Blur (как в дизайне). Когда у гитары добавляется "резкость", появляется приятный трансовый tune, который нас и будет радовать до самого конца трека. Приём традиционный, но всегда действует. 10 / 10

Save Me — Своеобразный трек. Начало очень хаусовое с постепенным добавлением различных инструментов. В какой-то момент я почувствовал перебор с их количеством, особенно после добавление реверснутых вокальных партий. Немного сумбурно звучит, но в целом неплохо. Вокал здесь, как и в большинстве треков, пренадлежит самому Вадиму. 6 / 10

Don't Cry — Очень крутой трек. Очень атмосферный и длинный. Но длина здесь не помеха, даже если бы он 20 минут шёл, всё было бы впорядке. В конце прошлого года я Don't Cry слушал на репите раз по пять. Здесь постоянно добавляется что-то новое: новые партии, инструменты, позже — голос. Всё меняется и не стоит на месте. В такие моменты начинаешь особенно ценить прогрессив как стиль. 10 / 10

Ø — Чувствуется что трек на альбоме ключевой и знаковый. Не хит, но символ! Вадим Жуков здесь "даёт Баха", играя на органе. Понравилось. Трагично и величественно. Уверен что в треке скрыт глубокий смысл. Интересно было бы спросить у самого автора, какое значние он вкладывал в дыхание, которое звучит в конце. Передышка? Или новые переживания? 9 / 10

Universum — Сперва показался мне простым альбомным наполнителем, но вскоре это мнение изменилось. Трек определённо имеет в себе нечто магическое и мистическое. Вокальные партии на непонятном языке (латинский?) плюс шикарный звук а-ля X-files звучат очень так по-шамански. Но шаман точно русский, я уверен, голос уносит в далёкую заснеженную русскую деревню, сажает слушателя рядом с печкой и начинает убаюкивать. Такие вот ассоциации. 7 / 10

Rain of Stars — Ну вот это точно наполнитель. Приятный и красивый трек. Ничего особенного сказать про него не могу. Такие должны быть на каждом альбоме, чтобы последующий хит слушался с особенным удовольствиям. 7 / 10

Alive — Ещё один альбомный хит-сингл. Трек с искоркой, трек с напряжённой струной. Второй тьюн лонгплея с полноценным женским вокалом, на этот раз от Laura Cyganik. Как язвит моя подруга "К чёрту аранжировщиков, в трансе всё решают вокалистки". Но это не весь залог успеха, в Alive очень много родных звуков, за которые мы так любим творчество Вадима. 9 / 10

Let The Whole World Know — Мой самый любимый трек на всём альбоме. Сперва очень жёсткий, синтетический и грязно рычащий басами, а после очень объёмный и пространственный. Могу слушать его бесконечно. Очень гармоничное завершение альбома. 10 / 10
Exact Audio Copy V0.99 prebeta 5 from 4. May 2009

EAC extraction logfile from 3. July 2009, 18:12

Vadim Zhukov / O

Used drive : Optiarc DVD RW AD-7200S Adapter: 0 ID: 0

Read mode : Secure
Utilize accurate stream : Yes
Defeat audio cache : Yes
Make use of C2 pointers : No

Read offset correction : 48
Overread into Lead-In and Lead-Out : No
Fill up missing offset samples with silence : Yes
Delete leading and trailing silent blocks : No
Null samples used in CRC calculations : Yes
Used interface : Native Win32 interface for Win NT & 2000
Gap handling : Appended to previous track

Used output format : User Defined Encoder
Selected bitrate : 320 kBit/s
Quality : High
Add ID3 tag : No
Command line compressor : C:\Program Files\Exact Audio Copy\Flac\flac.exe
Additional command line options : -6 -V -T "ARTIST=%a" -T "TITLE=%t" -T "ALBUM=%g" -T "DATE=%y" -T "TRACKNUMBER=%n" -T "GENRE=%m" -T "COMMENT=%e" %s -o %d

TOC of the extracted CD

Track | Start | Length | Start sector | End sector
---------------------------------------------------------
1 | 0:00.00 | 5:58.72 | 0 | 26921
2 | 5:58.72 | 6:32.50 | 26922 | 56371
3 | 12:31.47 | 6:51.04 | 56372 | 87200
4 | 19:22.51 | 6:39.70 | 87201 | 117195
5 | 26:02.46 | 9:39.12 | 117196 | 160632
6 | 35:41.58 | 5:17.07 | 160633 | 184414
7 | 40:58.65 | 7:34.74 | 184415 | 218538
8 | 48:33.64 | 5:15.34 | 218539 | 242197
9 | 53:49.23 | 6:12.21 | 242198 | 270118
10 | 60:01.44 | 5:49.64 | 270119 | 296357

Track 1

Filename C:\Recovered Files\Audio\Vadim Zhukov\Vadim Zhukov - O (the beginning...) (2009)\01 - Wake Up.wav

Pre-gap length 0:00:02.00

Peak level 99.9 %
Track quality 99.9 %
Test CRC 9B223FA3
Copy CRC 9B223FA3
Track not present in AccurateRip database
Copy OK

Track 2

Filename C:\Recovered Files\Audio\Vadim Zhukov\Vadim Zhukov - O (the beginning...) (2009)\02 - Follow Me (feat. Anna Heart).wav

Peak level 99.9 %
Track quality 100.0 %
Test CRC 3FB8A676
Copy CRC 3FB8A676
Track not present in AccurateRip database
Copy OK

Track 3

Filename C:\Recovered Files\Audio\Vadim Zhukov\Vadim Zhukov - O (the beginning...) (2009)\03 - Ninety Nine.wav

Peak level 99.9 %
Track quality 100.0 %
Test CRC 4F35A521
Copy CRC 4F35A521
Track not present in AccurateRip database
Copy OK

Track 4

Filename C:\Recovered Files\Audio\Vadim Zhukov\Vadim Zhukov - O (the beginning...) (2009)\04 - Save Me.wav

Peak level 99.9 %
Track quality 100.0 %
Test CRC 01D398D3
Copy CRC 01D398D3
Track not present in AccurateRip database
Copy OK

Track 5

Filename C:\Recovered Files\Audio\Vadim Zhukov\Vadim Zhukov - O (the beginning...) (2009)\05 - Don't Cry.wav

Peak level 99.9 %
Track quality 100.0 %
Test CRC F1D84FD9
Copy CRC F1D84FD9
Track not present in AccurateRip database
Copy OK

Track 6

Filename C:\Recovered Files\Audio\Vadim Zhukov\Vadim Zhukov - O (the beginning...) (2009)\06 - O.wav

Peak level 99.9 %
Track quality 99.9 %
Test CRC 6D2791B2
Copy CRC 6D2791B2
Track not present in AccurateRip database
Copy OK

Track 7

Filename C:\Recovered Files\Audio\Vadim Zhukov\Vadim Zhukov - O (the beginning...) (2009)\07 - Universum.wav

Peak level 99.9 %
Track quality 100.0 %
Test CRC 1C338DB3
Copy CRC 1C338DB3
Track not present in AccurateRip database
Copy OK

Track 8

Filename C:\Recovered Files\Audio\Vadim Zhukov\Vadim Zhukov - O (the beginning...) (2009)\08 - Rain Of Stars.wav

Peak level 99.9 %
Track quality 99.9 %
Test CRC 60AFB126
Copy CRC 60AFB126
Track not present in AccurateRip database
Copy OK

Track 9

Filename C:\Recovered Files\Audio\Vadim Zhukov\Vadim Zhukov - O (the beginning...) (2009)\09 - Alive (feat. Laura Cyganik).wav

Peak level 99.9 %
Track quality 100.0 %
Test CRC B37F2ADD
Copy CRC B37F2ADD
Track not present in AccurateRip database
Copy OK

Track 10

Filename C:\Recovered Files\Audio\Vadim Zhukov\Vadim Zhukov - O (the beginning...) (2009)\10 - Let The Whole World Know.wav

Peak level 99.9 %
Track quality 100.0 %
Test CRC 2DC7F66B
Copy CRC 2DC7F66B
Track not present in AccurateRip database
Copy OK

None of the tracks are present in the AccurateRip database

No errors occurred

End of status report

Этот торрент недоступен для скачивания без регистрации, однако доступен по публичной magnet-ссылке (источники с публичных трекеров). Перед использованием ссылки прочтите, пожалуйста Пользовательское соглашение, а также как можно дольше оставайтесь на раздаче! Для того, чтобы скачать сам торрент-файл (который видит больше источников), а также для того, чтобы поблагодарить релизера, вам необходимо зарегистрироваться. Если регистрироваться лень - вы можете также попробовать скачать релиз по нашим партнерским ссылкам ниже. Кроме того, зарегистрированным пользователям не показывается всплывающая реклама при скачивании.

[underverse.su].t4556.torrent
Трекер: Зарегистрирован   [ 21.07.2009 12:35 ]  

Статус: проверено (by ZondeR at 22.07.2009 08:00)
Поблагодарили: пока никто не поблагодарил...
Тип торрента: публичный - доступные источники с открытых трекеров: 
Размер: 424 MB (занимает 0,09 DVDR, для записи нужно 1 болванка DVDR/RW)
 
 
Похожие темы
Форум Тема Автор Торрент Отв. Посл. сооб.
Архив (HQ электронная музыка) (Trance) Вадим Жуков - Эволюция (2005) [FLAC (Tracks), 1000-1200 kbps] yaha
0 | 0

1 | 1475

8

16.06.2011 08:09

05-Ноя-2011 14:45

Топик был перенесен из форума Trance, GoaTrance, PsyTrance (Lossless) в форум Архив


[cron robot]
 

Яндекс.Метрика powered by Sphinx


В Н И М А Н И Е
Сайт не распространяет и не хранит электронные версии произведений, а лишь бесплатно и без коммерческой выгоды (не требуя взамен платы,
SMS и т.д.) предоставляет доступ к создаваемому пользователями каталогу ссылок на торрент-файлы, которые содержат только списки хеш-сумм.
Убедительная просьба с жалобами обращаться напрямую к пользователю, разместившему торрент файл.

Вверх