Loading...
Error

(R'n'B, Swing) Rita Ora - Ora (2012) [FLAC (Tracks+.CUE), Lossless]

Статистика раздачи
Размер:  312 MB   |    Зарегистрирован:  2 года 9 месяцев   |    Скачан:  3 раза

Полного источника не было: 9 дней

Сидов:  0  |  0 KB/s  ]   Личеров:  0  |  0 KB/s  ]

* - сиды/пиры с внешних источников

   
 
Автор Сообщение

Бишеп Пол:Муж

02-Фев-2015 08:47

Rita Ora - Ora

Жанр: R'n'B, Swing
Год выпуска: 2012
Источник: CD
Производитель диска: Columbia
Аудиокодек: FLAC
Тип рипа: Tracks+.CUE
Битрейт аудио: lossless
Продолжительность: 00:42:32


Треклист:
01. Facemelt
02. Roc The Life
03. How We Do (Party)
04. R.I.P. (feat. Tinie Tempah)
05. Radioactive
06. Shine Ya Light
07. Love & War (feat. J. Cole)
08. Uneasy
09. Fall in Love (feat. Will.I.Am)
10. Been Lyin
11. Hello, Hi, Goodbye
12. Hot Right Now (Dj Fresh feat. Rita Ora)

Exact Audio Copy V1.0 beta 3 from 29. August 2011

EAC extraction logfile from 25. August 2012, 15:30

Rita Ora / Ora

Used drive : TSSTcorpDVD+-RW TS-T633A Adapter: 0 ID: 0

Read mode : Secure
Utilize accurate stream : Yes
Defeat audio cache : Yes
Make use of C2 pointers : No

Read offset correction : 6
Overread into Lead-In and Lead-Out : No
Fill up missing offset samples with silence : Yes
Delete leading and trailing silent blocks : No
Null samples used in CRC calculations : Yes
Used interface : Native Win32 interface for Win NT & 2000
Gap handling : Appended to previous track

Used output format : User Defined Encoder
Selected bitrate : 1024 kBit/s
Quality : High
Add ID3 tag : No
Command line compressor : C:\Program Files (x86)\Exact Audio Copy\Flac\flac.exe
Additional command line options : -8 -V -T "ARTIST=%artist%" -T "TITLE=%title%" -T "ALBUM=%albumtitle%" -T "DATE=%year%" -T "TRACKNUMBER=%tracknr%" -T "GENRE=%genre%" -T "PERFORMER=%albuminterpret%" -T "COMPOSER=%composer%" %haslyrics%--tag-from-file=LYRICS="%lyricsfile%"%haslyrics% -T "ALBUMARTIST=%albumartist%" -T "DISCNUMBER=%cdnumber%" -T "TOTALDISCS=%totalcds%" -T "TOTALTRACKS=%numtracks%" -T "COMMENT=%comment%" %source% -o %dest%

TOC of the extracted CD

Track | Start | Length | Start sector | End sector
---------------------------------------------------------
1 | 0:00.00 | 1:32.72 | 0 | 6971
2 | 1:32.72 | 3:59.11 | 6972 | 24907
3 | 5:32.08 | 4:02.29 | 24908 | 43086
4 | 9:34.37 | 3:45.56 | 43087 | 60017
5 | 13:20.18 | 4:11.16 | 60018 | 78858
6 | 17:31.34 | 3:30.64 | 78859 | 94672
7 | 21:02.23 | 3:35.03 | 94673 | 110800
8 | 24:37.26 | 3:02.35 | 110801 | 124485
9 | 27:39.61 | 4:13.45 | 124486 | 143505
10 | 31:53.31 | 3:44.60 | 143506 | 160365
11 | 35:38.16 | 4:00.34 | 160366 | 178399
12 | 39:38.50 | 2:59.02 | 178400 | 191826

Track 1

Filename C:\EAC\1 - Rita Ora - Facemelt.wav

Pre-gap length 0:00:02.00

Peak level 99.8 %
Extraction speed 1.4 X
Track quality 99.8 %
Test CRC F387E5CA
Copy CRC F387E5CA
Track not present in AccurateRip database
Copy OK

Track 2

Filename C:\EAC\2 - Rita Ora - Roc the Life.wav

Peak level 99.7 %
Extraction speed 2.7 X
Track quality 100.0 %
Test CRC 720AD0B2
Copy CRC 720AD0B2
Track not present in AccurateRip database
Copy OK

Track 3

Filename C:\EAC\3 - Rita Ora - How We Do (Party).wav

Peak level 99.7 %
Extraction speed 2.9 X
Track quality 100.0 %
Test CRC C9EE07CB
Copy CRC C9EE07CB
Track not present in AccurateRip database
Copy OK

Track 4

Filename C:\EAC\4 - Rita Ora - R.I.P. (feat. Tinie Tempah).wav

Peak level 99.8 %
Extraction speed 2.6 X
Track quality 99.9 %
Test CRC 60807853
Copy CRC 60807853
Track not present in AccurateRip database
Copy OK

Track 5

Filename C:\EAC\5 - Rita Ora - Radioactive.wav

Peak level 99.8 %
Extraction speed 3.4 X
Track quality 100.0 %
Test CRC B3DBE0A7
Copy CRC B3DBE0A7
Track not present in AccurateRip database
Copy OK

Track 6

Filename C:\EAC\6 - Rita Ora - Shine Ya Light.wav

Peak level 99.8 %
Extraction speed 3.5 X
Track quality 100.0 %
Test CRC E915A4A1
Copy CRC E915A4A1
Track not present in AccurateRip database
Copy OK

Track 7

Filename C:\EAC\7 - Rita Ora - Love and War (feat. J. Cole).wav

Peak level 99.9 %
Extraction speed 3.6 X
Track quality 100.0 %
Test CRC 2D3BF5F1
Copy CRC 2D3BF5F1
Track not present in AccurateRip database
Copy OK

Track 8

Filename C:\EAC\8 - Rita Ora - Uneasy.wav

Peak level 99.8 %
Extraction speed 3.7 X
Track quality 100.0 %
Test CRC 9DD4EF70
Copy CRC 9DD4EF70
Track not present in AccurateRip database
Copy OK

Track 9

Filename C:\EAC\9 - Rita Ora - Fall in Love (feat. will.i.am).wav

Peak level 99.8 %
Extraction speed 3.3 X
Track quality 99.9 %
Test CRC BD2ABF46
Copy CRC BD2ABF46
Track not present in AccurateRip database
Copy OK

Track 10

Filename C:\EAC\10 - Rita Ora - Been Lying.wav

Peak level 99.8 %
Extraction speed 4.1 X
Track quality 100.0 %
Test CRC 426B0C05
Copy CRC 426B0C05
Track not present in AccurateRip database
Copy OK

Track 11

Filename C:\EAC\11 - Rita Ora - Hello, Hi, Goodbye.wav

Peak level 99.8 %
Extraction speed 4.3 X
Track quality 100.0 %
Test CRC 78CD98F0
Copy CRC 78CD98F0
Track not present in AccurateRip database
Copy OK

Track 12

Filename C:\EAC\12 - DJ Fresh - Hot Right Now (feat. Rita Ora).wav

Pre-gap length 0:00:01.96

Peak level 99.8 %
Extraction speed 4.2 X
Track quality 100.0 %
Test CRC 65EDB184
Copy CRC 65EDB184
Track not present in AccurateRip database
Copy OK

None of the tracks are present in the AccurateRip database

No errors occurred

End of status report

---- CUETools DB Plugin V2.1.3

[CTDB TOCID: rt74sw5k_AZdvtzqzTDdwGnE_50-] disk not present in database, Submit result: rt74sw5k_AZdvtzqzTDdwGnE_50- has been uploaded

==== Log checksum 43F9E48CEA3F880856747A9436D459DDC227A1C3C4FB5D498D0771149431438C ====

REM GENRE Pop
REM DATE 2012
REM DISCID 9209FD0C
REM COMMENT "ExactAudioCopy v1.0b3"
CATALOG 0887254583622
PERFORMER "Rita Ora"
TITLE "Ora"
FILE "1 - Rita Ora - Facemelt.wav" WAVE
TRACK 01 AUDIO
TITLE "Facemelt"
PERFORMER "Rita Ora"
ISRC H2I461201123
INDEX 01 00:00:00
FILE "2 - Rita Ora - Roc the Life.wav" WAVE
TRACK 02 AUDIO
TITLE "Roc the Life"
PERFORMER "Rita Ora"
ISRC H2I461201248
INDEX 01 00:00:00
FILE "3 - Rita Ora - How We Do (Party).wav" WAVE
TRACK 03 AUDIO
TITLE "How We Do (Party)"
PERFORMER "Rita Ora"
ISRC H2I461101879
INDEX 01 00:00:00
FILE "4 - Rita Ora - R.I.P. (feat. Tinie Tempah).wav" WAVE
TRACK 04 AUDIO
TITLE "R.I.P. (feat. Tinie Tempah)"
PERFORMER "Rita Ora"
ISRC H2I461200342
INDEX 01 00:00:00
FILE "5 - Rita Ora - Radioactive.wav" WAVE
TRACK 05 AUDIO
TITLE "Radioactive"
PERFORMER "Rita Ora"
ISRC H2I461201250
INDEX 01 00:00:00
FILE "6 - Rita Ora - Shine Ya Light.wav" WAVE
TRACK 06 AUDIO
TITLE "Shine Ya Light"
PERFORMER "Rita Ora"
ISRC H2I461201249
INDEX 01 00:00:00
FILE "7 - Rita Ora - Love and War (feat. J. Cole).wav" WAVE
TRACK 07 AUDIO
TITLE "Love and War (feat. J. Cole)"
PERFORMER "Rita Ora"
ISRC H2I461201252
INDEX 01 00:00:00
FILE "8 - Rita Ora - Uneasy.wav" WAVE
TRACK 08 AUDIO
TITLE "Uneasy"
PERFORMER "Rita Ora"
ISRC H2I461201253
INDEX 01 00:00:00
FILE "9 - Rita Ora - Fall in Love (feat. will.i.am).wav" WAVE
TRACK 09 AUDIO
TITLE "Fall in Love (feat. will.i.am)"
PERFORMER "Rita Ora"
ISRC H2I461201255
INDEX 01 00:00:00
FILE "10 - Rita Ora - Been Lying.wav" WAVE
TRACK 10 AUDIO
TITLE "Been Lying"
PERFORMER "Rita Ora"
ISRC H2I461201254
INDEX 01 00:00:00
FILE "11 - Rita Ora - Hello, Hi, Goodbye.wav" WAVE
TRACK 11 AUDIO
TITLE "Hello, Hi, Goodbye"
PERFORMER "Rita Ora"
ISRC H2I461201256
INDEX 01 00:00:00
TRACK 12 AUDIO
TITLE "Hot Right Now (feat. Rita Ora)"
PERFORMER "DJ Fresh"
ISRC H2I461200775
INDEX 00 03:58:37
FILE "12 - DJ Fresh - Hot Right Now (feat. Rita Ora).wav" WAVE
INDEX 01 00:00:00

Этот торрент недоступен для скачивания без регистрации, однако доступен по публичной magnet-ссылке (источники с публичных трекеров). Перед использованием ссылки прочтите, пожалуйста Пользовательское соглашение, а также как можно дольше оставайтесь на раздаче! Для того, чтобы скачать сам торрент-файл (который видит больше источников), а также для того, чтобы поблагодарить релизера, вам необходимо зарегистрироваться. Если регистрироваться лень - вы можете также попробовать скачать релиз по нашим партнерским ссылкам ниже.

[underverse.su].t49098.torrent
Трекер: Зарегистрирован   [ 02.02.2015 08:47 ]  

Статус: проверено (by Бишеп at 02.02.2015 08:47)
Поблагодарили: пока никто не поблагодарил...
Тип торрента: публичный - доступные источники с открытых трекеров: 
Размер: 312 MB (занимает 0,07 DVDR, для записи нужно 1 болванка DVDR/RW)
 
 
Похожие темы
Форум Тема Автор Торрент Отв. Посл. сооб.
Зарубежный R'n'B (Lossless) (R'n'B, Swing, Soul) Lauryn Hill - The Miseducation Of Lauryn Hill (Japanese Edition) (1998) [FLAC (Tracks+.Cue), Lossless] Бишеп
6 | 9

0 | 567

2

07.11.2016 16:39


Яндекс.Метрика powered by Sphinx


В Н И М А Н И Е
Сайт не распространяет и не хранит электронные версии произведений, а лишь бесплатно и без коммерческой выгоды (не требуя взамен платы,
SMS и т.д.) предоставляет доступ к создаваемому пользователями каталогу ссылок на торрент-файлы, которые содержат только списки хеш-сумм.
Убедительная просьба с жалобами обращаться напрямую к пользователю, разместившему торрент файл.

Вверх