Loading...
Error

(Power Metal) Rage Of Romance - Rage Of Romance (2014) [FLAC (Image+.CUE), Lossless]

Статистика раздачи
Размер:  311 MB   |    Зарегистрирован:  3 года   |    Скачан:  6 раз

Полного источника не было: 2 месяца 12 дней

Сидов:  0  |  0 KB/s  ]   Личеров:  0  |  0 KB/s  ]

* - сиды/пиры с внешних источников

   
 
Автор Сообщение

Бишеп Пол:Муж

05-Ноя-2014 13:40

Rage Of Romance - Rage Of Romance

Жанр: Power Metal
Год выпуска: 2014
Производитель диска: Steel Gallery Records SGR CD-037
Аудиокодек: FLAC
Тип рипа: Image+.CUE
Битрейт аудио: lossless
Продолжительность: 00:36:24


Треклист:
01. Black Winter Heart
02. Let Me Breath Again
03. Silent Fairytale
04. Lorelei
05. Your Hearts Denial
06. Holy Serenade
07. Shadows In Paradise
08. Figment Of Your Crimes

Exact Audio Copy V1.0 beta 3 from 29. August 2011

EAC extraction logfile from 23. October 2014, 13:58

Rage Of Romance / Rage Of Romance

Used drive : HP DVD Writer 1170d Adapter: 0 ID: 0

Read mode : Secure
Utilize accurate stream : Yes
Defeat audio cache : Yes
Make use of C2 pointers : No

Read offset correction : 6
Overread into Lead-In and Lead-Out : No
Fill up missing offset samples with silence : Yes
Delete leading and trailing silent blocks : No
Null samples used in CRC calculations : Yes
Used interface : Native Win32 interface for Win NT & 2000

Used output format : User Defined Encoder
Selected bitrate : 768 kBit/s
Quality : High
Add ID3 tag : No
Command line compressor : C:\Program Files (x86)\Exact Audio Copy\FLAC\FLAC.EXE
Additional command line options : -V -8 -T "Date=%year%" -T "Genre=%genre%" -T"COMMENT=Ripped by Ungern666" -8 -V %source%

TOC of the extracted CD

Track | Start | Length | Start sector | End sector
---------------------------------------------------------
1 | 0:00.00 | 5:54.64 | 0 | 26613
2 | 5:54.64 | 3:53.54 | 26614 | 44142
3 | 9:48.43 | 4:21.34 | 44143 | 63751
4 | 14:10.02 | 4:02.16 | 63752 | 81917
5 | 18:12.18 | 4:28.29 | 81918 | 102046
6 | 22:40.47 | 3:50.55 | 102047 | 119351
7 | 26:31.27 | 4:43.63 | 119352 | 140639
8 | 31:15.15 | 5:09.12 | 140640 | 163826

Range status and errors

Selected range

Filename C:\EAC\Ungern666\Rage Of Romance - Rage Of Romance.wav

Peak level 100.0 %
Extraction speed 6.5 X
Range quality 100.0 %
Test CRC 65A8A317
Copy CRC 65A8A317
Copy OK

No errors occurred

AccurateRip summary
Track 1 not present in database
Track 2 not present in database
Track 3 not present in database
Track 4 not present in database
Track 5 not present in database
Track 6 not present in database
Track 7 not present in database
Track 8 not present in database
None of the tracks are present in the AccurateRip database

End of status report

==== Log checksum 846BA654DB6D97A9E69B176B1CE1827B6DCB9B38AB80810E3C3D2BF6C80A5F83 ====

Этот торрент недоступен для скачивания без регистрации, однако доступен по публичной magnet-ссылке (источники с публичных трекеров). Перед использованием ссылки прочтите, пожалуйста Пользовательское соглашение, а также как можно дольше оставайтесь на раздаче! Для того, чтобы скачать сам торрент-файл (который видит больше источников), а также для того, чтобы поблагодарить релизера, вам необходимо зарегистрироваться. Если регистрироваться лень - вы можете также попробовать скачать релиз по нашим партнерским ссылкам ниже.

[underverse.su].t45955.torrent
Трекер: Зарегистрирован   [ 05.11.2014 13:40 ]  

Статус: проверено (by Бишеп at 05.11.2014 13:40)
Поблагодарили: пока никто не поблагодарил...
Тип торрента: публичный - доступные источники с открытых трекеров: 
Размер: 311 MB (занимает 0,07 DVDR, для записи нужно 1 болванка DVDR/RW)
 
 
Похожие темы
Форум Тема Автор Торрент Отв. Посл. сооб.
Зарубежный Black, Death, Heavy, Thrash, Power, Folk, Gothic Metal (Power Metal) Dawn Of Destiny - Praying To The World (2012) [MP3, CBR 320 kbps] ZondeR
0 | 0

1 | 1042

0

04.10.2012 06:25

Зарубежный Black, Death, Heavy, Thrash, Power, Folk, Gothic Metal (Power Metal, Speed Metal) Helloween - Burning Sun [EP] (2012) [MP3, CBR 320 kbps] ZondeR
0 | 0

0 | 1336

4

30.10.2012 15:03

Зарубежный Black, Death, Heavy, Thrash, Power, Folk, Gothic Metal (Power Metal) Sabaton - Coat Of Arms (2010) Limited Ed. [MP3, 320 kbps CBR] DeadlySaint
0 | 0

0 | 965

0

03.12.2012 07:06

Зарубежный Black, Death, Heavy, Thrash, Power, Folk, Gothic Metal (Power Metal) Gamma Ray - Master of Confusion (EP) (2013) [MP3, 320 kbps CBR] Jimmy
0 | 0

0 | 1345

8

15.03.2013 15:52

Зарубежный Black, Death, Heavy, Thrash, Power, Folk, Gothic Metal (Power Metal, Symphonic Metal) Megaromania - Megaromania (2013) [MP3, 320 kbps CBR] Jimmy
1 | 1

0 | 1275

4

17.03.2013 12:02

Зарубежный Black, Death, Heavy, Thrash, Power, Folk, Gothic Metal (Power Metal) Human Fortress - Raided Land (2013) [MP3, 320 kbps] Jimmy
0 | 0

0 | 1629

2

30.11.2013 11:35

Зарубежный Black, Death, Heavy, Thrash, Power, Folk, Gothic Metal (Power Metal) Sonata Arctica - Pariah's Child (2014) [MP3, 320 kbps] Jimmy
0 | 0

0 | 1672

14

26.03.2014 03:58

Зарубежный Black, Death, Heavy, Thrash, Power, Folk, Gothic Metal (Power Metal) Edguy - Spасе Роlice - Defenders of the Сrоwn [Limited Edition 2CD] (2014) [MP3, 320 kbps] Jimmy
0 | 0

0 | 1086

9

24.04.2014 04:06

Зарубежный Black, Death, Heavy, Thrash, Power, Folk, Gothic Metal (Power Metal, Symphonic Metal, Folk Metal) To the Mountains - Struggle of the Ages (2017) [MP3, 320 kbps CBR] Darkferse
1 | 1

0 | 545

3

23.05.2017 08:34

Зарубежный Black, Death, Heavy, Thrash, Power, Folk, Gothic Metal (Power Metal) Taken - Taken (Japanese Edition) (2016) [FLAC (Image+.Cue), Lossless] Бишеп
0 | 0

0 | 312

2

07.01.2017 18:25


Яндекс.Метрика powered by Sphinx


В Н И М А Н И Е
Сайт не распространяет и не хранит электронные версии произведений, а лишь бесплатно и без коммерческой выгоды (не требуя взамен платы,
SMS и т.д.) предоставляет доступ к создаваемому пользователями каталогу ссылок на торрент-файлы, которые содержат только списки хеш-сумм.
Убедительная просьба с жалобами обращаться напрямую к пользователю, разместившему торрент файл.

Вверх