Loading...
Error

Космос: Пространство и время / Cosmos: A SpaceTime Odyssey / Сезон: 1 / Серии: 1-13 из 13 (Билл Поуп) [2014, США, документальный, BDRip 1080p] VO (RUS, Арк-ТВ) + Original (ENG) + Commentary (ENG) + Subs (ENG)

Статистика раздачи
Размер:  83,54 GB   |    Зарегистрирован:  3 года 2 месяца   |    Скачан:  24 раза
Сидов:  1  |  203 KB/s  ]   Личеров:  0  |  0 KB/s  ]

* - сиды/пиры с внешних источников

   
 
Автор Сообщение

uzi2009 Пол:Муж

05-Сен-2014 17:59

Космос: Пространство и время / Cosmos: A SpaceTime Odyssey


Год выпуска: 2014
Страна: США
Жанр: документальный
Продолжительность: 00:43:47
Перевод:
|Профессиональный (одноголосый, закадровый) Арк-ТВ|
Субтитры: Английские

Режиссер: Билл Поуп / Bill Pope

В ролях: Нил Тайсон (играет самого себя - ведущий), Питер Эмшвиллер (George Tilton, озвучка), Бетани Леви (Businesswoman), Мехди Мерали (Cab Driver), Nadia Rochelle Pfarr (Malala Yousefzai), Пол Телфер (Angry Scholar #2)

Описание:
Документальный сериал рассказывает о последних научных открытиях, которые были сделаны в области астронавтики, астрофизики и других наук. Сериал «Космос: Путешествие во времени» является продолжением научно-популярной серии фильмов «Космос: Персональное путешествие с Карлом Саганом» и отражает события последних трех десятилетий. Астрофизик Нил Деграсс Тайсон с соавторами (среди которых вдова Сагана Энн Драйэн) расскажет об открытых законах мира космоса, о возможности межпланетных путешествий и наблюдении за космическими процессами. Все самые сложные понятия представлены с потрясающей четкостью, в повествовании соединяются научная точность и эмоциональность. Трехмерная компьютерная графика, уникальные съемки и использование спецэффектов делают каждый эпизод захватывающим и необычным.

Рейтинг

Качество: BDRip 1080p | Исходник: Cosmos.A.Spacetime.Odyssey.S01.1080p.BluRay.REMUX.DTS-HD.MA.5.1.H.264-HiFi
Формат: MKV
Видео кодек: AVC
Аудио кодек: AC3/DTS
Видео: AVC, 1920x1080 (16:9), ~16000 - 21000kbps, 23,976 fps
Аудио #1: AC-3, 48.0 KHz, 2 ch, 192 Kbps, CBR (Russian)
Аудио #2: DTS, 48.0 KHz, 6ch, 1509 kbps (English)
Аудио #3: AC-3, 48.0 KHz, 2 ch, 224 Kbps, CBR (English, commentary)
Работа со звуком: Messa-fan
Рип от D-Z0N3!


Цитата:

Сохранены оригинальные чаптеры как на Blu-ray.

Тональность русской дорожки сохранена, перетяжка не производилась.

Запись русского звука NewStudio и bolzen

Текст читали: Денис Некрасов, Игорь Тарадайкин, Сергей Смирнов, Александр Гаврилин

Огромная благодарность Serdg71 за помощь с релизом.

Релиз: by Messafan

Код:

General
Unique ID : 209890544868541550959950934678331287129 (0x9DE772D38EA8F08EA5B0F77572E56659)
Complete name : Cosmos.A.Spacetime.Odyssey.2014.S01.1080p.BDRip.Rus.Eng.HDCLUB/Cosmos.A.Spacetime.Odyssey.2014.S01E01.1080p.BDRip.Rus.Eng.HDCLUB.mkv
Format : Matroska
Format version : Version 4 / Version 2
File size : 7.32 GiB
Duration : 46mn 3s
Overall bit rate : 22.8 Mbps
Movie name : Cosmos 2014 S01E01 Standing Up in the Milky Way - Release Messafan for HDCLUB
Encoded date : UTC 2014-07-01 18:19:18
Writing application : mkvmerge v6.5.0 ('Isn't she lovely') built on Oct 20 2013 12:50:05
Writing library : libebml v1.3.0 + libmatroska v1.4.1

Video
ID : 1
Format : AVC
Format/Info : Advanced Video Codec
Format profile : High@L4.1
Format settings, CABAC : Yes
Format settings, ReFrames : 4 frames
Codec ID : V_MPEG4/ISO/AVC
Duration : 46mn 3s
Bit rate : 21.0 Mbps
Width : 1 920 pixels
Height : 1 080 pixels
Display aspect ratio : 16:9
Frame rate : 23.976 fps
Color space : YUV
Chroma subsampling : 4:2:0
Bit depth : 8 bits
Scan type : Progressive
Bits/(Pixel*Frame) : 0.422
Stream size : 6.55 GiB (90%)
Title : Cosmos 2014 S01E01 Standing Up in the Milky Way - Release for HDCLUB
Writing library : x264 core 142 r2431+42 c69a006 tMod [8-bit@all X86_64]
Encoding settings : cabac=1 / ref=4 / deblock=1:-3:-3 / analyse=0x3:0x113 / me=umh / subme=11 / psy=1 / fade_compensate=0.00 / psy_rd=1.10:0.15 / mixed_ref=1 / me_range=48 / chroma_me=1 / trellis=2 / 8x8dct=1 / cqm=0 / deadzone=21,11 / fast_pskip=0 / chroma_qp_offset=-3 / threads=12 / lookahead_threads=3 / sliced_threads=0 / nr=0 / decimate=0 / interlaced=0 / bluray_compat=0 / constrained_intra=0 / fgo=0 / bframes=10 / b_pyramid=2 / b_adapt=2 / b_bias=0 / direct=3 / weightb=1 / open_gop=0 / weightp=2 / keyint=250 / keyint_min=23 / scenecut=40 / intra_refresh=0 / rc_lookahead=40 / rc=2pass / mbtree=0 / bitrate=21000 / ratetol=1.0 / qcomp=0.60 / qpmin=0:0:0 / qpmax=69:69:69 / qpstep=4 / cplxblur=20.0 / qblur=0.5 / vbv_maxrate=38000 / vbv_bufsize=30000 / nal_hrd=none / filler=0 / ip_ratio=1.10 / pb_ratio=1.10 / aq=4:1.00 / aq-sensitivity=10.00 / aq-factor=1.00:1.00:1.00 / aq2=1:0.60 / aq2-sensitivity=15.00 / aq2-factor=1.00:1.00:1.00 / aq3=0 / zones=41200,41285,b=2.5
Language : English
Default : Yes
Forced : No

Audio #1
ID : 2
Format : AC-3
Format/Info : Audio Coding 3
Mode extension : CM (complete main)
Format settings, Endianness : Big
Codec ID : A_AC3
Duration : 46mn 3s
Bit rate mode : Constant
Bit rate : 192 Kbps
Channel(s) : 2 channels
Channel positions : Front: L R
Sampling rate : 48.0 KHz
Bit depth : 16 bits
Compression mode : Lossy
Stream size : 63.2 MiB (1%)
Title : Nat Geo Rus / AC3 2.0 / 192kbps / 48KHz
Language : Russian
Default : Yes
Forced : No

Audio #2
ID : 3
Format : DTS
Format/Info : Digital Theater Systems
Codec ID : A_DTS
Duration : 46mn 3s
Bit rate mode : Constant
Bit rate : 1 510 Kbps
Channel(s) : 6 channels
Channel positions : Front: L C R, Side: L R, LFE
Sampling rate : 48.0 KHz
Bit depth : 24 bits
Compression mode : Lossy
Stream size : 497 MiB (7%)
Title : DTS 5.1
Language : English
Default : No
Forced : No

Audio #3
ID : 4
Format : AC-3
Format/Info : Audio Coding 3
Mode extension : CM (complete main)
Format settings, Endianness : Big
Codec ID : A_AC3
Duration : 46mn 3s
Bit rate mode : Constant
Bit rate : 224 Kbps
Channel(s) : 2 channels
Channel positions : Front: L R
Sampling rate : 48.0 KHz
Bit depth : 16 bits
Compression mode : Lossy
Stream size : 73.8 MiB (1%)
Title : Ann Druyan, Mitchell Cannold, Brannon Braga, Jason Clark & Kara Vallow Commentary
Language : English
Default : No
Forced : No

Text
ID : 5
Format : UTF-8
Codec ID : S_TEXT/UTF8
Codec ID/Info : UTF-8 Plain Text
Title : English
Language : English
Default : No
Forced : No

Menu
00:00:00.000 : en:Chapter 01
00:03:49.354 : en:Chapter 02
00:10:36.844 : en:Chapter 03
00:12:48.350 : en:Chapter 04
00:16:37.621 : en:Chapter 05
00:19:25.706 : en:Chapter 06
00:23:03.799 : en:Chapter 07
00:27:53.088 : en:Chapter 08
00:31:22.046 : en:Chapter 09
00:36:33.399 : en:Chapter 10
00:40:14.829 : en:Chapter 11
00:43:22.933 : en:Chapter 12
pic pic pic pic pic


Этот торрент недоступен для скачивания без регистрации, однако доступен по публичной magnet-ссылке (источники с публичных трекеров). Перед использованием ссылки прочтите, пожалуйста Пользовательское соглашение, а также как можно дольше оставайтесь на раздаче! Для того, чтобы скачать сам торрент-файл (который видит больше источников), а также для того, чтобы поблагодарить релизера, вам необходимо зарегистрироваться. Если регистрироваться лень - вы можете также попробовать скачать релиз по нашим партнерским ссылкам ниже.

[underverse.su].t43627.torrent
Трекер: Зарегистрирован   [ 05.09.2014 17:59 ]  

Статус: проверено (by Ведьмочка at 05.09.2014 18:35)
Поблагодарили: 1 человек
Тип торрента: публичный - доступные источники с открытых трекеров: 
Размер: 83,54 GB (занимает 19,08 DVDR, для записи нужно 20 болванок DVDR/RW)
 
 
Похожие темы
Форум Тема Автор Торрент Отв. Посл. сооб.
National Geographic Космос: Пространство и время / Cosmos: A Space Time Odyssey (1 сезон: 1-13 серий из 13) / (Брэннон Брага, Энн Драйэн, Билл Поуп) [2014 г., документальный, научно-познавательный, космос, BDRip-AVC] VO ARI71
22 | 0

0 | 878

15

11.08.2016 14:29

Документальное кино [DVD / HDDVD / BD / Remux] Космос: Пространство и время / Cosmos: A SpaceTime Odyssey / Сезон: 1 / Серии: 1-13 из 13 (Билл Поуп) [2014, документальный, BDRemux 1080p] VO (RUS, Арк-ТВ) + Original (ENG) + Subs (ENG, GER, FRA,... uzi2009
9 | 10

0 | 1462

12

05.09.2014 18:09

robinsar Пол:Муж

15-Сен-2014 17:33

Хочу особенно отметить этот сериал документальных фильмов. Понятно и четко расставив все по полочкам обьясняется многое на что раньше не было ответов. Очень рекомендую.

Яндекс.Метрика powered by Sphinx


В Н И М А Н И Е
Сайт не распространяет и не хранит электронные версии произведений, а лишь бесплатно и без коммерческой выгоды (не требуя взамен платы,
SMS и т.д.) предоставляет доступ к создаваемому пользователями каталогу ссылок на торрент-файлы, которые содержат только списки хеш-сумм.
Убедительная просьба с жалобами обращаться напрямую к пользователю, разместившему торрент файл.

Вверх