Loading...
Error

(Drum & Bass, Dubstep, House) Camo & Krooked - Cross The Line (2011) [FLAC (Tracks+.CUE), Lossless]

Статистика раздачи
Размер:  478 MB   |    Зарегистрирован:  3 года 4 месяца   |    Скачан:  10 раз

Полного источника не было: 8 месяцев

Сидов:  0  |  0 KB/s  ]   Личеров:  0  |  0 KB/s  ]

* - сиды/пиры с внешних источников

   
 
Автор Сообщение

Бишеп Пол:Муж

04-Авг-2014 05:32

Camo & Krooked - Cross The Line

Жанр: Drum & Bass, Dubstep, House
Год выпуска: 2011
Производитель диска: Hospital Records - NHS194CD
Аудиокодек: FLAC
Тип рипа: Tracks+.CUE
Битрейт аудио: Lossless
Продолжительность: 00:59:09
Треклист:
01. Get Dirty (feat. TC)
02. All Fall Down (feat. Shaz Sparks)
03. Breezeblock
04. Cross The Line (feat. Ayah Marar)
05. Make The Call (feat. TC)
06. Run Riot
07. Anubis
08. In The Future (feat. Jenna G & Futurebound)
09. The Lesson (feat. Skittles)
10. Watch It Burn (feat. Ayah Marar)
11. Hot Pursuit
12. Funk You
13. Far Away
14. Afterlife

Код:

X Lossless Decoder version 20110924 (136.3)

XLD extraction logfile from 2011-10-05 12:20:34 +0000

Camo & Krooked / Cross The Line

Used drive : HL-DT-ST DVDRW  GS23N (revision SB03)

Ripper mode             : XLD Secure Ripper
Disable audio cache     : OK for the drive with a cache less than 1375KiB
Make use of C2 pointers : NO
Read offset correction  : 667
Max retry count         : 100
Gap status              : Analyzed, Appended

TOC of the extracted CD
     Track |   Start  |  Length  | Start sector | End sector
    ---------------------------------------------------------
        1  | 00:00:00 | 04:50:57 |         0    |    21806   
        2  | 04:50:57 | 03:45:40 |     21807    |    38721   
        3  | 08:36:22 | 04:31:72 |     38722    |    59118   
        4  | 13:08:19 | 04:34:60 |     59119    |    79728   
        5  | 17:43:04 | 03:27:35 |     79729    |    95288   
        6  | 21:10:39 | 04:36:03 |     95289    |   115991   
        7  | 25:46:42 | 04:39:49 |    115992    |   136965   
        8  | 30:26:16 | 05:14:31 |    136966    |   160546   
        9  | 35:40:47 | 03:28:31 |    160547    |   176177   
       10  | 39:09:03 | 03:28:70 |    176178    |   191847   
       11  | 42:37:73 | 04:19:72 |    191848    |   211344   
       12  | 46:57:70 | 04:57:37 |    211345    |   233656   
       13  | 51:55:32 | 04:09:60 |    233657    |   252391   
       14  | 56:05:17 | 03:04:00 |    252392    |   266191   

AccurateRip Summary
    Disc not found in AccurateRip DB.

All Tracks
    Album gain             : -10.43 dB
    Peak                   : 0.999939
    Statistics
        Read error                           : 0
        Jitter error (maybe fixed)           : 0
        Retry sector count                   : 0
        Damaged sector count                 : 0

Track 01
    Filename : 01-01 - Get Dirty (feat. TC).mp3
               01-01 - Get Dirty (feat. TC).flac
    Pre-gap length : 00:02:00

    Track gain             : -9.95 dB
    Peak                   : 0.989929
    CRC32 hash (test run)  : 9FE9710F
    CRC32 hash             : 9FE9710F
    CRC32 hash (skip zero) : C4AB87CA
    AccurateRip signature  : EED14B61
        ->Track not present in AccurateRip database.
    Statistics
        Read error                           : 0
        Jitter error (maybe fixed)           : 0
        Retry sector count                   : 0
        Damaged sector count                 : 0

Track 02
    Filename : 01-02 - All Fall Down (Feat. Shaz Sparks).mp3
               01-02 - All Fall Down (Feat. Shaz Sparks).flac

    Track gain             : -11.45 dB
    Peak                   : 0.989929
    CRC32 hash (test run)  : 0FCB003B
    CRC32 hash             : 0FCB003B
    CRC32 hash (skip zero) : 3BB91A95
    AccurateRip signature  : C4CCBA4A
        ->Track not present in AccurateRip database.
    Statistics
        Read error                           : 0
        Jitter error (maybe fixed)           : 0
        Retry sector count                   : 0
        Damaged sector count                 : 0

Track 03
    Filename : 01-03 - Breezeblock.mp3
               01-03 - Breezeblock.flac

    Track gain             : -10.33 dB
    Peak                   : 0.989929
    CRC32 hash (test run)  : 3823C3A8
    CRC32 hash             : 3823C3A8
    CRC32 hash (skip zero) : E82E2634
    AccurateRip signature  : CDF8A8B9
        ->Track not present in AccurateRip database.
    Statistics
        Read error                           : 0
        Jitter error (maybe fixed)           : 0
        Retry sector count                   : 0
        Damaged sector count                 : 0

Track 04
    Filename : 01-04 - Cross The Line (feat. Ayah Marar).mp3
               01-04 - Cross The Line (feat. Ayah Marar).flac

    Track gain             : -10.65 dB
    Peak                   : 0.989929
    CRC32 hash (test run)  : 4B1D188F
    CRC32 hash             : 4B1D188F
    CRC32 hash (skip zero) : E121DF94
    AccurateRip signature  : FC71C7C6
        ->Track not present in AccurateRip database.
    Statistics
        Read error                           : 0
        Jitter error (maybe fixed)           : 0
        Retry sector count                   : 0
        Damaged sector count                 : 0

Track 05
    Filename : 01-05 - Make The Call (feat. TC).mp3
               01-05 - Make The Call (feat. TC).flac

    Track gain             : -9.12 dB
    Peak                   : 0.999939
    CRC32 hash (test run)  : 8B873335
    CRC32 hash             : 8B873335
    CRC32 hash (skip zero) : 8E3FF570
    AccurateRip signature  : 08640D83
        ->Track not present in AccurateRip database.
    Statistics
        Read error                           : 0
        Jitter error (maybe fixed)           : 0
        Retry sector count                   : 0
        Damaged sector count                 : 0

Track 06
    Filename : 01-06 - Run Riot.mp3
               01-06 - Run Riot.flac

    Track gain             : -10.44 dB
    Peak                   : 0.989929
    CRC32 hash (test run)  : DE8CC6F3
    CRC32 hash             : DE8CC6F3
    CRC32 hash (skip zero) : D02BC003
    AccurateRip signature  : B2BA8B57
        ->Track not present in AccurateRip database.
    Statistics
        Read error                           : 0
        Jitter error (maybe fixed)           : 0
        Retry sector count                   : 0
        Damaged sector count                 : 0

Track 07
    Filename : 01-07 - Anubis.mp3
               01-07 - Anubis.flac

    Track gain             : -10.52 dB
    Peak                   : 0.989929
    CRC32 hash (test run)  : 8530ABB4
    CRC32 hash             : 8530ABB4
    CRC32 hash (skip zero) : C8B2E598
    AccurateRip signature  : 9B38C4EC
        ->Track not present in AccurateRip database.
    Statistics
        Read error                           : 0
        Jitter error (maybe fixed)           : 0
        Retry sector count                   : 0
        Damaged sector count                 : 0

Track 08
    Filename : 01-08 - In The Future (feat. Jenna G & Futurebound).mp3
               01-08 - In The Future (feat. Jenna G & Futurebound).flac

    Track gain             : -11.17 dB
    Peak                   : 0.989929
    CRC32 hash (test run)  : 5AF31A1A
    CRC32 hash             : 5AF31A1A
    CRC32 hash (skip zero) : DA432A71
    AccurateRip signature  : 128E50B6
        ->Track not present in AccurateRip database.
    Statistics
        Read error                           : 0
        Jitter error (maybe fixed)           : 0
        Retry sector count                   : 0
        Damaged sector count                 : 0

Track 09
    Filename : 01-09 - The Lesson (feat. Skittles).mp3
               01-09 - The Lesson (feat. Skittles).flac

    Track gain             : -10.10 dB
    Peak                   : 0.999939
    CRC32 hash (test run)  : 6A55B99F
    CRC32 hash             : 6A55B99F
    CRC32 hash (skip zero) : 5AC335E7
    AccurateRip signature  : 2062ED31
        ->Track not present in AccurateRip database.
    Statistics
        Read error                           : 0
        Jitter error (maybe fixed)           : 0
        Retry sector count                   : 0
        Damaged sector count                 : 0

Track 10
    Filename : 01-10 - Watch It Burn (feat. Ayah Marar).mp3
               01-10 - Watch It Burn (feat. Ayah Marar).flac

    Track gain             : -9.53 dB
    Peak                   : 0.989929
    CRC32 hash (test run)  : 8123B81B
    CRC32 hash             : 8123B81B
    CRC32 hash (skip zero) : 979F51F2
    AccurateRip signature  : 58817A7A
        ->Track not present in AccurateRip database.
    Statistics
        Read error                           : 0
        Jitter error (maybe fixed)           : 0
        Retry sector count                   : 0
        Damaged sector count                 : 0

Track 11
    Filename : 01-11 - Hot Pursuit.mp3
               01-11 - Hot Pursuit.flac

    Track gain             : -10.76 dB
    Peak                   : 0.989929
    CRC32 hash (test run)  : 09705B08
    CRC32 hash             : 09705B08
    CRC32 hash (skip zero) : 58666F74
    AccurateRip signature  : 3F7D3792
        ->Track not present in AccurateRip database.
    Statistics
        Read error                           : 0
        Jitter error (maybe fixed)           : 0
        Retry sector count                   : 0
        Damaged sector count                 : 0

Track 12
    Filename : 01-12 - Funk You.mp3
               01-12 - Funk You.flac

    Track gain             : -8.33 dB
    Peak                   : 0.989929
    CRC32 hash (test run)  : CE65355A
    CRC32 hash             : CE65355A
    CRC32 hash (skip zero) : EF9842B5
    AccurateRip signature  : EAC79053
        ->Track not present in AccurateRip database.
    Statistics
        Read error                           : 0
        Jitter error (maybe fixed)           : 0
        Retry sector count                   : 0
        Damaged sector count                 : 0

Track 13
    Filename : 01-13 - Far Away.mp3
               01-13 - Far Away.flac

    Track gain             : -9.63 dB
    Peak                   : 0.989929
    CRC32 hash (test run)  : F3D1C423
    CRC32 hash             : F3D1C423
    CRC32 hash (skip zero) : 2F00A810
    AccurateRip signature  : F33B9ACF
        ->Track not present in AccurateRip database.
    Statistics
        Read error                           : 0
        Jitter error (maybe fixed)           : 0
        Retry sector count                   : 0
        Damaged sector count                 : 0

Track 14
    Filename : 01-14 - Afterlife.mp3
               01-14 - Afterlife.flac

    Track gain             : -10.98 dB
    Peak                   : 0.989929
    CRC32 hash (test run)  : 35DF5BEB
    CRC32 hash             : 35DF5BEB
    CRC32 hash (skip zero) : 6BDCC7EE
    AccurateRip signature  : F9B6132A
        ->Track not present in AccurateRip database.
    Statistics
        Read error                           : 0
        Jitter error (maybe fixed)           : 0
        Retry sector count                   : 0
        Damaged sector count                 : 0

No errors occurred

End of status report

Код:

TITLE "Cross The Line"
PERFORMER "Camo & Krooked"
REM GENRE "Drum & Bass"
REM DATE "2011"
REM DISCID C60DDD0E
REM REPLAYGAIN_ALBUM_GAIN -10.43 dB
REM REPLAYGAIN_ALBUM_PEAK 0.999939
FILE "01-01 - Get Dirty (feat. TC).flac" WAVE
  TRACK 01 AUDIO
    TITLE "Get Dirty (feat. TC)"
    ISRC GBCJY1100164
    REM REPLAYGAIN_TRACK_GAIN -9.95 dB
    REM REPLAYGAIN_TRACK_PEAK 0.989929
    INDEX 01 00:00:00
FILE "01-02 - All Fall Down (Feat. Shaz Sparks).flac" WAVE
  TRACK 02 AUDIO
    TITLE "All Fall Down (Feat. Shaz Sparks)"
    ISRC GBCJY1100086
    REM REPLAYGAIN_TRACK_GAIN -11.45 dB
    REM REPLAYGAIN_TRACK_PEAK 0.989929
    INDEX 01 00:00:00
FILE "01-03 - Breezeblock.flac" WAVE
  TRACK 03 AUDIO
    TITLE "Breezeblock"
    ISRC GBCJY1100087
    REM REPLAYGAIN_TRACK_GAIN -10.33 dB
    REM REPLAYGAIN_TRACK_PEAK 0.989929
    INDEX 01 00:00:00
FILE "01-04 - Cross The Line (feat. Ayah Marar).flac" WAVE
  TRACK 04 AUDIO
    TITLE "Cross The Line (feat. Ayah Marar)"
    ISRC GBCJY1100165
    REM REPLAYGAIN_TRACK_GAIN -10.65 dB
    REM REPLAYGAIN_TRACK_PEAK 0.989929
    INDEX 01 00:00:00
FILE "01-05 - Make The Call (feat. TC).flac" WAVE
  TRACK 05 AUDIO
    TITLE "Make The Call (feat. TC)"
    ISRC GBCJY1100141
    REM REPLAYGAIN_TRACK_GAIN -9.12 dB
    REM REPLAYGAIN_TRACK_PEAK 0.999939
    INDEX 01 00:00:00
FILE "01-06 - Run Riot.flac" WAVE
  TRACK 06 AUDIO
    TITLE "Run Riot"
    ISRC GBCJY1100122
    REM REPLAYGAIN_TRACK_GAIN -10.44 dB
    REM REPLAYGAIN_TRACK_PEAK 0.989929
    INDEX 01 00:00:00
FILE "01-07 - Anubis.flac" WAVE
  TRACK 07 AUDIO
    TITLE "Anubis"
    ISRC GBCJY1100123
    REM REPLAYGAIN_TRACK_GAIN -10.52 dB
    REM REPLAYGAIN_TRACK_PEAK 0.989929
    INDEX 01 00:00:00
FILE "01-08 - In The Future (feat. Jenna G & Futurebound).flac" WAVE
  TRACK 08 AUDIO
    TITLE "In The Future (feat. Jenna G & Futurebound)"
    ISRC GBCJY1100121
    REM REPLAYGAIN_TRACK_GAIN -11.17 dB
    REM REPLAYGAIN_TRACK_PEAK 0.989929
    INDEX 01 00:00:00
FILE "01-09 - The Lesson (feat. Skittles).flac" WAVE
  TRACK 09 AUDIO
    TITLE "The Lesson (feat. Skittles)"
    ISRC GBCJY1100166
    REM REPLAYGAIN_TRACK_GAIN -10.10 dB
    REM REPLAYGAIN_TRACK_PEAK 0.999939
    INDEX 01 00:00:00
FILE "01-10 - Watch It Burn (feat. Ayah Marar).flac" WAVE
  TRACK 10 AUDIO
    TITLE "Watch It Burn (feat. Ayah Marar)"
    ISRC GBCJY1100167
    REM REPLAYGAIN_TRACK_GAIN -9.53 dB
    REM REPLAYGAIN_TRACK_PEAK 0.989929
    INDEX 01 00:00:00
FILE "01-11 - Hot Pursuit.flac" WAVE
  TRACK 11 AUDIO
    TITLE "Hot Pursuit"
    ISRC GBCJY1100124
    REM REPLAYGAIN_TRACK_GAIN -10.76 dB
    REM REPLAYGAIN_TRACK_PEAK 0.989929
    INDEX 01 00:00:00
FILE "01-12 - Funk You.flac" WAVE
  TRACK 12 AUDIO
    TITLE "Funk You"
    ISRC GBCJY1100168
    REM REPLAYGAIN_TRACK_GAIN -8.33 dB
    REM REPLAYGAIN_TRACK_PEAK 0.989929
    INDEX 01 00:00:00
FILE "01-13 - Far Away.flac" WAVE
  TRACK 13 AUDIO
    TITLE "Far Away"
    ISRC GBCJY1100169
    REM REPLAYGAIN_TRACK_GAIN -9.63 dB
    REM REPLAYGAIN_TRACK_PEAK 0.989929
    INDEX 01 00:00:00
FILE "01-14 - Afterlife.flac" WAVE
  TRACK 14 AUDIO
    TITLE "Afterlife"
    ISRC GBCJY1100170
    REM REPLAYGAIN_TRACK_GAIN -10.98 dB
    REM REPLAYGAIN_TRACK_PEAK 0.989929
    INDEX 01 00:00:00

Этот торрент недоступен для скачивания без регистрации, однако доступен по публичной magnet-ссылке (источники с публичных трекеров). Перед использованием ссылки прочтите, пожалуйста Пользовательское соглашение, а также как можно дольше оставайтесь на раздаче! Для того, чтобы скачать сам торрент-файл (который видит больше источников), а также для того, чтобы поблагодарить релизера, вам необходимо зарегистрироваться. Если регистрироваться лень - вы можете также попробовать скачать релиз по нашим партнерским ссылкам ниже.

[underverse.su].t42312.torrent
Трекер: Зарегистрирован   [ 04.08.2014 05:32 ]  

Статус: проверено (by Бишеп at 04.08.2014 05:32)
Поблагодарили: 2 человека
Тип торрента: публичный - доступные источники с открытых трекеров: 
Размер: 478 MB (занимает 0,11 DVDR, для записи нужно 1 болванка DVDR/RW)
 
 
Похожие темы
Форум Тема Автор Торрент Отв. Посл. сооб.
Drum & Bass, Jungle (Drum & Bass, Jungle) Dead Man's Chest - Throwing Shades (2017) [MP3, 320 kbps CBR] Darkferse
2 | 0

0 | 152

2

11.07.2017 08:59

Drum & Bass, Jungle (Drum & Bass) BCee - Thanks For Joining Us (2016) [MP3, 320 kbps] ANDRAKO
2 | 2

0 | 581

3

25.12.2016 07:29

Drum & Bass, Jungle (Drum & Bass) Blu Mar Ten - Empire State (2016) [MP3, 320 kbps] ANDRAKO
21 | 1

0 | 613

7

25.12.2016 07:08

Drum & Bass, Jungle (Drum & Bass) VA - Пиратская Станция Apocalypse (2012) [MP3, 320 kbps] PainKiler
0 | 0

2 | 1517

9

13.02.2012 20:44

Drum & Bass, Jungle (Drum & Bass) Hospitality Drum & Bass 2012 (Unmixed) (2012) [MP3, 320 kbps] PainKiler
0 | 0

1 | 1354

11

03.03.2014 11:20

Drum & Bass, Jungle (Drum & Bass) Straight Up Drum & Bass! (2012) [MP3, 320 kbps] PainKiler
0 | 0

0 | 1259

12

27.02.2012 08:35

Drum & Bass, Jungle (Drum & Bass) SPL - Forever Lost (2012) [MP3, 320 kbps] PainKiler
0 | 0

0 | 1324

9

06.03.2012 14:21

Drum & Bass, Jungle (Drum & Bass) VA - A.R.M.O.R. 2 (2012) [MP3, 320 kbps] PainKiler
0 | 0

0 | 1506

7

17.03.2012 11:36

Drum & Bass, Jungle (Drum & Bass) Netsky - 2 (2012) [MP3, 320 kbps] razor123
0 | 0

1 | 1459

1

15.08.2012 14:20

Drum & Bass, Jungle (Drum & Bass, Drumstep, Dubstep, Garage) Netsky - 2 (Deluxe) (2012) [MP3, 320 kbps CBR] terra07
3 | 0

1 | 1837

30

08.04.2015 15:06


Яндекс.Метрика powered by Sphinx


В Н И М А Н И Е
Сайт не распространяет и не хранит электронные версии произведений, а лишь бесплатно и без коммерческой выгоды (не требуя взамен платы,
SMS и т.д.) предоставляет доступ к создаваемому пользователями каталогу ссылок на торрент-файлы, которые содержат только списки хеш-сумм.
Убедительная просьба с жалобами обращаться напрямую к пользователю, разместившему торрент файл.

Вверх