Loading...
Error

Великие воины / Warriors. Heroes and Villains (Ник Грин, Гарет Эдвардс, Эндрю Грив, Тим Данн, Ник Мёрфи, Ариф Нурмохамед / Nick Green, Andrew Grieve, Gareth Edwards, Tim Dunn, Nick Murphy, Arif Nurmohamed) [2007 г., документальный, HDTV 1080i]

Статистика раздачи
Размер:  30,45 GB   |    Зарегистрирован:  3 года 6 месяцев   |    Скачан:  5 раз

Полного источника не было: 6 месяцев

Сидов:  0  |  0 KB/s  ]   Личеров:  0  |  0 KB/s  ]

* - сиды/пиры с внешних источников

   
 
Автор Сообщение

uzi2009 Пол:Муж

09-Май-2014 10:49

Великие воины / Warriors. Heroes and Villains

Год выпуска: 2007
Страна: Великобритания
Жанр: документальный
Продолжительность: 4:58:14
Перевод: Профессиональный (двухголосый)
Русские субтитры: есть

Режиссер: Ник Грин, Гарет Эдвардс, Эндрю Грив, Тим Данн, Ник Мёрфи, Ариф Нурмохамед / Nick Green, Andrew Grieve, Gareth Edwards, Tim Dunn, Nick Murphy, Arif Nurmohamed

В ролях: Роб Брайдон, Энтони Флэнеган, Джеймс Саито, Стивен Вэддингтон, Ричард МакКейб, Хиро Канагава, Эндрю Тирнан, Том Бурк, Луис Одзава Чангчьен, Джонни Харрис и др.

Описание: 6 историй о великих воинах, чьи имена навеки вошли в мировую историю: Спартак, Наполеон, Кортес, Аттила, Ричард Львиное Сердце, Токугава Иэясу.

1. Наполеон / Napoleon / 49:29
2. Сёгун / Shogun / 49:26
3. Спартак / Spartacus / 49:15
4. Кортес / Cortes / 50:05
5. Ричард Львиное Сердце / Richard the Lionheart / 49:46
6. Аттила-гунн / Attila the Hun / 50:13



Качество: HDTV
Формат: MKV
Видео кодек: H.264
Аудио кодек: AC3
Видео: MPEG-4 AVC, ~14 Mbps, 1920x1080i, 25 fps
Аудио 1: Русский, Dolby Digital, 2.0, 48 kHz, 192 kbps
Аудио 2: Английский, Dolby Digital, 5.1, 48 kHz, 448 kbps
Субтитры: Русские
pic pic pic pic pic


Цитата:

Цитата:



GeneralComplete name : Warriors S01E01 Napoleon.mkvFormat : MatroskaFile size : 5.21 GiBDuration : 49mn 29sOverall bit rate : 15.1 MbpsEncoded date : UTC 2010-06-13 02:55:49Writing application : mkvmerge v3.4.0 ('Rapunzel') built on May 15 2010 09:38:20Writing library : libebml v0.8.0 + libmatroska v0.9.0

VideoID : 1Format : AVCFormat/Info : Advanced Video CodecFormat profile : Main@L4.0Format settings, CABAC : YesFormat settings, ReFrames : 4 framesMuxing mode : Container profile=Unknown@0.0Codec ID : V_MPEG4/ISO/AVCDuration : 49mn 29sBit rate : 14.1 MbpsWidth : 1 920 pixelsHeight : 1 080 pixelsDisplay aspect ratio : 16:9Frame rate : 25.000 fpsColor space : YUVChroma subsampling : 4:2:0Bit depth : 8 bitsScan type : InterlacedScan order : Top Field FirstBits/(Pixel*Frame) : 0.273Stream size : 4.89 GiB (94%)Language : EnglishColor primaries : BT.709-5, BT.1361, IEC 61966-2-4, SMPTE RP177Transfer characteristics : BT.709-5, BT.1361Matrix coefficients : BT.709-5, BT.1361, IEC 61966-2-4 709, SMPTE RP177

Audio #1ID : 2Format : AC-3Format/Info : Audio Coding 3Mode extension : CM (complete main)Codec ID : A_AC3Duration : 49mn 29sBit rate mode : ConstantBit rate : 192 KbpsChannel(s) : 2 channelsChannel positions : Front: L RSampling rate : 48.0 KHzStream size : 68.0 MiB (1%)Language : Russian

Audio #2ID : 3Format : AC-3Format/Info : Audio Coding 3Mode extension : CM (complete main)Codec ID : A_AC3Duration : 49mn 29sBit rate mode : ConstantBit rate : 448 KbpsChannel(s) : 6 channelsChannel positions : Front: L C R, Side: L R, LFESampling rate : 48.0 KHzStream size : 159 MiB (3%)Language : English

TextID : 4Format : UTF-8Codec ID : S_TEXT/UTF8Codec ID/Info : UTF-8 Plain TextLanguage : Russian

Этот торрент недоступен для скачивания без регистрации, однако доступен по публичной magnet-ссылке (источники с публичных трекеров). Перед использованием ссылки прочтите, пожалуйста Пользовательское соглашение, а также как можно дольше оставайтесь на раздаче! Для того, чтобы скачать сам торрент-файл (который видит больше источников), а также для того, чтобы поблагодарить релизера, вам необходимо зарегистрироваться. Если регистрироваться лень - вы можете также попробовать скачать релиз по нашим партнерским ссылкам ниже.

[underverse.su].t39995.torrent
Трекер: Зарегистрирован   [ 09.05.2014 10:49 ]  

Статус: проверено (by Паукан at 10.05.2014 12:53)
Поблагодарили: 1 человек
Тип торрента: публичный - доступные источники с открытых трекеров: 
Размер: 30,45 GB (занимает 6,96 DVDR, для записи нужно 7 болванок DVDR/RW)
 
 

Яндекс.Метрика powered by Sphinx


В Н И М А Н И Е
Сайт не распространяет и не хранит электронные версии произведений, а лишь бесплатно и без коммерческой выгоды (не требуя взамен платы,
SMS и т.д.) предоставляет доступ к создаваемому пользователями каталогу ссылок на торрент-файлы, которые содержат только списки хеш-сумм.
Убедительная просьба с жалобами обращаться напрямую к пользователю, разместившему торрент файл.

Вверх