Loading...
Error

(Drum & Bass, Trip-Hop) Kosheen - Resist (2001) [FLAC (Image+.CUE) Lossless]

Статистика раздачи
Размер:  462 MB   |    Зарегистрирован:  3 года 7 месяцев   |    Скачан:  8 раз

Полного источника не было: 7 часов

Сидов:  0  |  0 KB/s  ]   Личеров:  0  |  0 KB/s  ]

* - сиды/пиры с внешних источников

   
 
Автор Сообщение

Бишеп Пол:Муж

05-Май-2014 05:55

Kosheen - Resist

Жанр: Drum & Bass, Trip-Hop
Год выпуска: 2001
Производитель диска: Moksha Recordings - MOKSHA LP03CD
Аудиокодек: FLAC
Тип рипа: Image+.CUE
Битрейт аудио: Lossless
Продолжительность: 01:08:04
Треклист:
01. Demonstrate
02. Hide U
03. Catch
04. Cover
05. Harder
06. (Slip & Slide) Suicide
07. Empty Skies
08. I want It All
09. Resist
10. Repeat To Fade
11. Hungry
12. Face In A Crowd
13. Pride
14. Cruelty
15. Let Go
16. Playing Games
17. Gone

Exact Audio Copy V0.99 prebeta 5 from 4. May 2009

Отчёт EAC об извлечении, выполненном 16. января 2011, 13:53

Kosheen / Resist

Дисковод: ATAPI DVD A DH16AAS Adapter: 2 ID: 0

Режим чтения : Достоверность
Использование точного потока : Да
Отключение кэша аудио : Да
Использование указателей C2 : Нет

Коррекция смещения при чтении : 6
Способность читать области Lead-in и Lead-out : Нет
Заполнение пропущенных сэмплов тишиной : Да
Удаление блоков с тишиной в начале и конце : Нет
При вычислениях CRC использовались нулевые сэмплы : Да
Интерфейс : Встроенный Win32-интерфейс для Win NT/2000

Выходной формат : Пользовательский кодировщик
Выбранный битрейт : 768 kBit/s
Качество : Высокий
Добавление ID3-тэга : Нет
Утилита сжатия : C:\Program Files\Exact Audio Copy\FLAC\FLAC.EXE
Дополнительные параметры : -6 -V -T "ARTIST=%a" -T "TITLE=%t" -T "ALBUM=%g" -T "DATE=%y" -T "TRACKNUMBER=%n" -T "GENRE=%m" -T "COMMENT=%e" %s -o %d

TOC извлечённого CD

Трек | Старт | Длительность | Начальный сектор | Конечный сектор
---------------------------------------------------------------------
1 | 0:00.00 | 0:27.47 | 0 | 2071
2 | 0:27.47 | 4:12.27 | 2072 | 20998
3 | 4:39.74 | 3:23.42 | 20999 | 36265
4 | 8:03.41 | 3:49.55 | 36266 | 53495
5 | 11:53.21 | 4:17.39 | 53496 | 72809
6 | 16:10.60 | 3:35.15 | 72810 | 88949
7 | 19:46.00 | 4:12.37 | 88950 | 107886
8 | 23:58.37 | 5:07.00 | 107887 | 130911
9 | 29:05.37 | 4:47.29 | 130912 | 152465
10 | 33:52.66 | 4:39.30 | 152466 | 173420
11 | 38:32.21 | 5:26.26 | 173421 | 197896
12 | 43:58.47 | 3:43.69 | 197897 | 214690
13 | 47:42.41 | 4:01.13 | 214691 | 232778
14 | 51:43.54 | 4:04.70 | 232779 | 251148
15 | 55:48.49 | 4:20.16 | 251149 | 270664
16 | 60:08.65 | 4:16.00 | 270665 | 289864
17 | 64:24.65 | 3:39.18 | 289865 | 306307

Характеристики диапазона извлечения и сообщения об ошибках

Выбранный диапазон

Имя файла C:\Users\user\Desktop\Kosheen - Resist\Kosheen - Resist.wav

Пиковый уровень 100.0 %
Качество диапазона 99.9 %
CRC теста 5D83B3C8
CRC копии 5D83B3C8
Копирование... OK

Ошибок не произошло

AccurateRip: сводка
Трек 1 нет в базе данных
Трек 2 нет в базе данных
Трек 3 нет в базе данных
Трек 4 нет в базе данных
Трек 5 нет в базе данных
Трек 6 нет в базе данных
Трек 7 нет в базе данных
Трек 8 нет в базе данных
Трек 9 нет в базе данных
Трек 10 нет в базе данных
Трек 11 нет в базе данных
Трек 12 нет в базе данных
Трек 13 нет в базе данных
Трек 14 нет в базе данных
Трек 15 нет в базе данных
Трек 16 нет в базе данных
Трек 17 нет в базе данных
Ни одного трека нет в базе AccurateRip

Конец отчёта

Этот торрент недоступен для скачивания без регистрации, однако доступен по публичной magnet-ссылке (источники с публичных трекеров). Перед использованием ссылки прочтите, пожалуйста Пользовательское соглашение, а также как можно дольше оставайтесь на раздаче! Для того, чтобы скачать сам торрент-файл (который видит больше источников), а также для того, чтобы поблагодарить релизера, вам необходимо зарегистрироваться. Если регистрироваться лень - вы можете также попробовать скачать релиз по нашим партнерским ссылкам ниже.

[underverse.su].t39747.torrent
Трекер: Зарегистрирован   [ 05.05.2014 05:55 ]  

Статус: проверено (by Бишеп at 05.05.2014 05:55)
Поблагодарили: пока никто не поблагодарил...
Тип торрента: публичный - доступные источники с открытых трекеров: 
Размер: 462 MB (занимает 0,1 DVDR, для записи нужно 1 болванка DVDR/RW)
 
 
Похожие темы
Форум Тема Автор Торрент Отв. Посл. сооб.
Drum & Bass, Jungle (Drum & Bass, Jungle) Dead Man's Chest - Throwing Shades (2017) [MP3, 320 kbps CBR] Darkferse
2 | 0

0 | 151

2

11.07.2017 08:59

Drum & Bass, Jungle (Drum & Bass) BCee - Thanks For Joining Us (2016) [MP3, 320 kbps] ANDRAKO
2 | 2

0 | 579

3

25.12.2016 07:29

Drum & Bass, Jungle (Drum & Bass) Blu Mar Ten - Empire State (2016) [MP3, 320 kbps] ANDRAKO
21 | 1

0 | 611

7

25.12.2016 07:08

Drum & Bass, Jungle (Drum & Bass) VA - Пиратская Станция Apocalypse (2012) [MP3, 320 kbps] PainKiler
0 | 0

2 | 1517

9

13.02.2012 20:44

Drum & Bass, Jungle (Drum & Bass) Hospitality Drum & Bass 2012 (Unmixed) (2012) [MP3, 320 kbps] PainKiler
0 | 0

1 | 1354

11

03.03.2014 11:20

Drum & Bass, Jungle (Drum & Bass) Straight Up Drum & Bass! (2012) [MP3, 320 kbps] PainKiler
0 | 0

0 | 1258

12

27.02.2012 08:35

Drum & Bass, Jungle (Drum & Bass) SPL - Forever Lost (2012) [MP3, 320 kbps] PainKiler
0 | 0

0 | 1324

9

06.03.2012 14:21

Drum & Bass, Jungle (Drum & Bass) VA - A.R.M.O.R. 2 (2012) [MP3, 320 kbps] PainKiler
0 | 0

0 | 1506

7

17.03.2012 11:36

Drum & Bass, Jungle (Drum & Bass) Netsky - 2 (2012) [MP3, 320 kbps] razor123
0 | 0

1 | 1459

1

15.08.2012 14:20

Drum & Bass, Jungle (Drum & Bass, Drumstep, Dubstep, Garage) Netsky - 2 (Deluxe) (2012) [MP3, 320 kbps CBR] terra07
3 | 0

1 | 1835

30

08.04.2015 15:06


Яндекс.Метрика powered by Sphinx


В Н И М А Н И Е
Сайт не распространяет и не хранит электронные версии произведений, а лишь бесплатно и без коммерческой выгоды (не требуя взамен платы,
SMS и т.д.) предоставляет доступ к создаваемому пользователями каталогу ссылок на торрент-файлы, которые содержат только списки хеш-сумм.
Убедительная просьба с жалобами обращаться напрямую к пользователю, разместившему торрент файл.

Вверх