Loading...
Error

(Pop, Ballad) VA - I Just Called To Say I love You (1994) [FLAC (Tracks+.CUE), Lossless]

Статистика раздачи
Размер:  477 MB   |    Зарегистрирован:  3 года 5 месяцев   |    Скачан:  7 раз

Полного источника не было: 3 дня

Сидов:  0  |  0 KB/s  ]   Личеров:  0  |  0 KB/s  ]

* - сиды/пиры с внешних источников

   
 
Автор Сообщение

Бишеп Пол:Муж

04-Май-2014 09:44

I Just Called To Say I love You

Жанр: Pop, Ballad
Год выпуска: 1994
Производитель диска: Bulgaria
Аудиокодек: FLAC
Тип рипа: Tracks+.CUE
Битрейт аудио: Lossless
Продолжительность: 01:13:27
Треклист:
01. Stevie Wonder "I Just Called To Say I Love You"
02. Barbara Straisand "Woman In Love"
03. George Michael "Careless Whispers"
04. Rod Stewart "Sailing"
05. Lionel Richie "Hello"
06. Joe Esposito "Lady, Lady, Lady"
07. Foreigner "I Want To Know What Love Is"
08. Sandra "Seal It Forever"
09. Vaya Con Dios "What's A Woman"
10. Whitney Houston "I Will Always Love You"
11. Ennio Morricone "La Piovra Theme"
12. Zucchero Feat. Paul Young "Senza Una Donna"
13. Patricia Kaas "It's A Man's World"
14. F. R. David "Music"
15. Joe Cocker "Now That The Magic Has Gone"
16. Giorgio Moroder "Flashdance (Love Theme)"

Exact Audio Copy V1.0 beta 3 from 29. August 2011

EAC extraction logfile from 30. December 2013, 10:19

Various / I Just Called To Say I Love You

Used drive : PLEXTOR DVDR PX-L890SA Adapter: 1 ID: 4

Read mode : Secure
Utilize accurate stream : Yes
Defeat audio cache : Yes
Make use of C2 pointers : No

Read offset correction : 6
Overread into Lead-In and Lead-Out : No
Fill up missing offset samples with silence : Yes
Delete leading and trailing silent blocks : No
Null samples used in CRC calculations : Yes
Used interface : Native Win32 interface for Win NT & 2000
Gap handling : Appended to previous track

Used output format : User Defined Encoder
Selected bitrate : 896 kBit/s
Quality : High
Add ID3 tag : No
Command line compressor : C:\Program Files (x86)\Exact Audio Copy\Flac\flac.exe
Additional command line options : -8 -V -T "ARTIST=%artist%" -T "TITLE=%title%" -T "ALBUM=%albumtitle%" -T "DATE=%year%" -T "TRACKNUMBER=%tracknr%" -T "GENRE=%genre%" -T "COMMENT=ripped by Oleandris" %source%

TOC of the extracted CD

Track | Start | Length | Start sector | End sector
---------------------------------------------------------
1 | 0:00.00 | 6:19.45 | 0 | 28469
2 | 6:19.45 | 3:53.17 | 28470 | 45961
3 | 10:12.62 | 5:03.65 | 45962 | 68751
4 | 15:16.52 | 4:28.15 | 68752 | 88866
5 | 19:44.67 | 4:09.43 | 88867 | 107584
6 | 23:54.35 | 4:12.20 | 107585 | 126504
7 | 28:06.55 | 5:04.50 | 126505 | 149354
8 | 33:11.30 | 4:50.57 | 149355 | 171161
9 | 38:02.12 | 3:57.28 | 171162 | 188964
10 | 41:59.40 | 4:34.65 | 188965 | 209579
11 | 46:34.30 | 5:07.52 | 209580 | 232656
12 | 51:42.07 | 4:30.38 | 232657 | 252944
13 | 56:12.45 | 5:48.52 | 252945 | 279096
14 | 62:01.22 | 3:14.05 | 279097 | 293651
15 | 65:15.27 | 4:42.35 | 293652 | 314836
16 | 69:57.62 | 3:29.13 | 314837 | 330524

Track 1

Filename F:\ЗАГРУЗКИ\ I Just Called To Say I love You (1994)\01. Stevie Wonder - I Just Called To Say I Love You.wav

Pre-gap length 0:00:02.00

Peak level 82.7 %
Extraction speed 4.2 X
Track quality 100.0 %
Test CRC D729E6F9
Copy CRC D729E6F9
Accurately ripped (confidence 1) [436C91B0] (AR v1)
Copy OK

Track 2

Filename F:\ЗАГРУЗКИ\ I Just Called To Say I love You (1994)\02. Barbara Straisand - Woman In Love.wav

Pre-gap length 0:00:03.58

Peak level 83.5 %
Extraction speed 4.4 X
Track quality 100.0 %
Test CRC 649E6D0B
Copy CRC 649E6D0B
Accurately ripped (confidence 1) [36FB0A62] (AR v1)
Copy OK

Track 3

Filename F:\ЗАГРУЗКИ\ I Just Called To Say I love You (1994)\03. George Michael - Careless Whispers.wav

Pre-gap length 0:00:03.67

Peak level 100.0 %
Extraction speed 5.0 X
Track quality 100.0 %
Test CRC 0E33D1F7
Copy CRC 0E33D1F7
Accurately ripped (confidence 1) [14C8F361] (AR v1)
Copy OK

Track 4

Filename F:\ЗАГРУЗКИ\ I Just Called To Say I love You (1994)\04. Rod Stewart - Sailing.wav

Pre-gap length 0:00:04.27

Peak level 79.2 %
Extraction speed 5.3 X
Track quality 100.0 %
Test CRC 9A7ADB6E
Copy CRC 9A7ADB6E
Accurately ripped (confidence 1) [A0B17C15] (AR v1)
Copy OK

Track 5

Filename F:\ЗАГРУЗКИ\ I Just Called To Say I love You (1994)\05. Lionel Richie - Hello.wav

Pre-gap length 0:00:05.55

Peak level 85.3 %
Extraction speed 5.5 X
Track quality 100.0 %
Test CRC 62AA8039
Copy CRC 62AA8039
Accurately ripped (confidence 1) [AE1C57B0] (AR v1)
Copy OK

Track 6

Filename F:\ЗАГРУЗКИ\ I Just Called To Say I love You (1994)\06. Tony Esposito - Lady, Lady, Lady.wav

Pre-gap length 0:00:02.65

Peak level 81.9 %
Extraction speed 5.8 X
Track quality 100.0 %
Test CRC D918CF4F
Copy CRC D918CF4F
Accurately ripped (confidence 1) [4A36296D] (AR v1)
Copy OK

Track 7

Filename F:\ЗАГРУЗКИ\ I Just Called To Say I love You (1994)\07. Foreigner - I Want To Know What Love Is.wav

Pre-gap length 0:00:04.05

Peak level 89.1 %
Extraction speed 6.2 X
Track quality 100.0 %
Test CRC 5FB534D9
Copy CRC 5FB534D9
Accurately ripped (confidence 1) [5AA793AB] (AR v1)
Copy OK

Track 8

Filename F:\ЗАГРУЗКИ\ I Just Called To Say I love You (1994)\08. Sandra - Seal It Forever.wav

Pre-gap length 0:00:03.60

Peak level 99.0 %
Extraction speed 6.5 X
Track quality 100.0 %
Test CRC 9CD3BC3F
Copy CRC 9CD3BC3F
Accurately ripped (confidence 1) [A2664C0F] (AR v1)
Copy OK

Track 9

Filename F:\ЗАГРУЗКИ\ I Just Called To Say I love You (1994)\09. Vaya Con Dios - What's A Woman.wav

Pre-gap length 0:00:03.12

Peak level 85.0 %
Extraction speed 5.2 X
Track quality 99.9 %
Test CRC 0F27E0BA
Copy CRC 0F27E0BA
Accurately ripped (confidence 1) [569101A2] (AR v1)
Copy OK

Track 10

Filename F:\ЗАГРУЗКИ\ I Just Called To Say I love You (1994)\10. Whitney Houston - I Will Always Love You.wav

Pre-gap length 0:00:04.53

Peak level 84.7 %
Extraction speed 5.7 X
Track quality 99.9 %
Test CRC 8DEA936C
Copy CRC 8DEA936C
Accurately ripped (confidence 1) [0AC467A2] (AR v1)
Copy OK

Track 11

Filename F:\ЗАГРУЗКИ\ I Just Called To Say I love You (1994)\11. Ennio Morricone - La Piovra Theme.wav

Pre-gap length 0:00:04.35

Peak level 89.4 %
Extraction speed 7.3 X
Track quality 100.0 %
Test CRC 9590C263
Copy CRC 9590C263
Accurately ripped (confidence 1) [E1A9B6CC] (AR v1)
Copy OK

Track 12

Filename F:\ЗАГРУЗКИ\ I Just Called To Say I love You (1994)\12. Zucchero Feat. Paul Young - Senza Una Donna.wav

Pre-gap length 0:00:03.70

Peak level 99.9 %
Extraction speed 7.5 X
Track quality 100.0 %
Test CRC 22480E56
Copy CRC 22480E56
Accurately ripped (confidence 1) [20474851] (AR v1)
Copy OK

Track 13

Filename F:\ЗАГРУЗКИ\ I Just Called To Say I love You (1994)\13. Patricia Kaas - It's A Man's World.wav

Pre-gap length 0:00:04.45

Peak level 100.0 %
Extraction speed 7.9 X
Track quality 100.0 %
Test CRC 9E3B2D2F
Copy CRC 9E3B2D2F
Accurately ripped (confidence 1) [9EC6EBB1] (AR v1)
Copy OK

Track 14

Filename F:\ЗАГРУЗКИ\ I Just Called To Say I love You (1994)\14. F. R. David - Music.wav

Pre-gap length 0:00:05.22

Peak level 93.6 %
Extraction speed 7.5 X
Track quality 100.0 %
Test CRC 1A2E2A69
Copy CRC 1A2E2A69
Accurately ripped (confidence 1) [83354510] (AR v1)
Copy OK

Track 15

Filename F:\ЗАГРУЗКИ\ I Just Called To Say I love You (1994)\15. Joe Cocker - Now That The Magic Has Gone.wav

Pre-gap length 0:00:02.57

Peak level 78.9 %
Extraction speed 8.1 X
Track quality 100.0 %
Test CRC 6BAF8FDC
Copy CRC 6BAF8FDC
Accurately ripped (confidence 1) [819A6502] (AR v1)
Copy OK

Track 16

Filename F:\ЗАГРУЗКИ\ I Just Called To Say I love You (1994)\16. Giorgio Moroder - Flashdance (Love Theme).wav

Pre-gap length 0:00:05.62

Peak level 86.7 %
Extraction speed 6.1 X
Track quality 99.9 %
Test CRC 61F5CEF0
Copy CRC 61F5CEF0
Accurately ripped (confidence 1) [3A87CFBF] (AR v1)
Copy OK

All tracks accurately ripped

No errors occurred

End of status report

---- CUETools DB Plugin V2.1.3

[CTDB TOCID: q9WmQ0WIp7prXi0b61qGh0I_nME-] disk not present in database, Submit result: q9WmQ0WIp7prXi0b61qGh0I_nME- has been uploaded

==== Log checksum C014F48C8FED3423E87D80863C82157E81256A25F4208078941AC57AD8A52696 ====
REM GENRE Polka
REM DISCID FB113710
REM COMMENT "ExactAudioCopy v1.0b3"
PERFORMER "Various"
TITLE "I Just Called To Say I Love You"
FILE "01. Stevie Wonder - I Just Called To Say I Love You.wav" WAVE
TRACK 01 AUDIO
TITLE "I Just Called To Say I Love You"
PERFORMER "Stevie Wonder"
INDEX 01 00:00:00
TRACK 02 AUDIO
TITLE "Woman In Love"
PERFORMER "Barbara Straisand"
INDEX 00 06:15:62
FILE "02. Barbara Straisand - Woman In Love.wav" WAVE
INDEX 01 00:00:00
TRACK 03 AUDIO
TITLE "Careless Whispers"
PERFORMER "George Michael"
INDEX 00 03:49:25
FILE "03. George Michael - Careless Whispers.wav" WAVE
INDEX 01 00:00:00
TRACK 04 AUDIO
TITLE "Sailing"
PERFORMER "Rod Stewart"
INDEX 00 04:59:38
FILE "04. Rod Stewart - Sailing.wav" WAVE
INDEX 01 00:00:00
TRACK 05 AUDIO
TITLE "Hello"
PERFORMER "Lionel Richie"
INDEX 00 04:22:35
FILE "05. Lionel Richie - Hello.wav" WAVE
INDEX 01 00:00:00
TRACK 06 AUDIO
TITLE "Lady, Lady, Lady"
PERFORMER "Tony Esposito"
INDEX 00 04:06:53
FILE "06. Tony Esposito - Lady, Lady, Lady.wav" WAVE
INDEX 01 00:00:00
TRACK 07 AUDIO
TITLE "I Want To Know What Love Is"
PERFORMER "Foreigner"
INDEX 00 04:08:15
FILE "07. Foreigner - I Want To Know What Love Is.wav" WAVE
INDEX 01 00:00:00
TRACK 08 AUDIO
TITLE "Seal It Forever"
PERFORMER "Sandra"
INDEX 00 05:00:65
FILE "08. Sandra - Seal It Forever.wav" WAVE
INDEX 01 00:00:00
TRACK 09 AUDIO
TITLE "What's A Woman"
PERFORMER "Vaya Con Dios"
INDEX 00 04:47:45
FILE "09. Vaya Con Dios - What's A Woman.wav" WAVE
INDEX 01 00:00:00
TRACK 10 AUDIO
TITLE "I Will Always Love You"
PERFORMER "Whitney Houston"
INDEX 00 03:52:50
FILE "10. Whitney Houston - I Will Always Love You.wav" WAVE
INDEX 01 00:00:00
TRACK 11 AUDIO
TITLE "La Piovra Theme"
PERFORMER "Ennio Morricone"
INDEX 00 04:30:30
FILE "11. Ennio Morricone - La Piovra Theme.wav" WAVE
INDEX 01 00:00:00
TRACK 12 AUDIO
TITLE "Senza Una Donna"
PERFORMER "Zucchero Feat. Paul Young"
INDEX 00 05:03:57
FILE "12. Zucchero Feat. Paul Young - Senza Una Donna.wav" WAVE
INDEX 01 00:00:00
TRACK 13 AUDIO
TITLE "It's A Man's World"
PERFORMER "Patricia Kaas"
INDEX 00 04:25:68
FILE "13. Patricia Kaas - It's A Man's World.wav" WAVE
INDEX 01 00:00:00
TRACK 14 AUDIO
TITLE "Music"
PERFORMER "F. R. David"
INDEX 00 05:43:30
FILE "14. F. R. David - Music.wav" WAVE
INDEX 01 00:00:00
TRACK 15 AUDIO
TITLE "Now That The Magic Has Gone"
PERFORMER "Joe Cocker"
INDEX 00 03:11:23
FILE "15. Joe Cocker - Now That The Magic Has Gone.wav" WAVE
INDEX 01 00:00:00
TRACK 16 AUDIO
TITLE "Flashdance (Love Theme)"
PERFORMER "Giorgio Moroder "
INDEX 00 04:36:48
FILE "16. Giorgio Moroder - Flashdance (Love Theme).wav" WAVE
INDEX 01 00:00:00

Этот торрент недоступен для скачивания без регистрации, однако доступен по публичной magnet-ссылке (источники с публичных трекеров). Перед использованием ссылки прочтите, пожалуйста Пользовательское соглашение, а также как можно дольше оставайтесь на раздаче! Для того, чтобы скачать сам торрент-файл (который видит больше источников), а также для того, чтобы поблагодарить релизера, вам необходимо зарегистрироваться. Если регистрироваться лень - вы можете также попробовать скачать релиз по нашим партнерским ссылкам ниже.

[underverse.su].t39679.torrent
Трекер: Зарегистрирован   [ 04.05.2014 09:44 ]  

Статус: проверено (by Бишеп at 04.05.2014 09:44)
Поблагодарили: 2 человека
Тип торрента: публичный - доступные источники с открытых трекеров: 
Размер: 477 MB (занимает 0,11 DVDR, для записи нужно 1 болванка DVDR/RW)
 
 
Похожие темы
Форум Тема Автор Торрент Отв. Посл. сооб.
Зарубежная Поп Музыка (Lossless) (Pop, Ballad) Justin Timberlake - FutureSex / LoveSounds (Deluxe Edition) (2006) [FLAC (Tracks+.Cue), Lossless] Бишеп
5 | 1

0 | 806

3

04.11.2016 15:46

Зарубежная Поп Музыка (Lossless) (Pop, Ballad, Vocal) Susan Boyle - I Dreamed A Dream (2009) [FLAC (Image+.CUE), Lossless] Бишеп
0 | 0

0 | 530

4

07.02.2015 12:38

Зарубежная Поп Музыка (Lossless) (Pop, Ballad, Vocal) Al Bano & Romina Power - The Collection (1998) [FLAC (Tracks+.CUE), Lossless] Бишеп
0 | 0

0 | 833

14

01.02.2016 16:24

Сборники (Pop, Ballad) VA - LOVE Soundsation (2016) [FLAC (Tracks), Lossless] Web Бишеп
1 | 1

0 | 479

7

02.11.2016 17:53


Яндекс.Метрика powered by Sphinx


В Н И М А Н И Е
Сайт не распространяет и не хранит электронные версии произведений, а лишь бесплатно и без коммерческой выгоды (не требуя взамен платы,
SMS и т.д.) предоставляет доступ к создаваемому пользователями каталогу ссылок на торрент-файлы, которые содержат только списки хеш-сумм.
Убедительная просьба с жалобами обращаться напрямую к пользователю, разместившему торрент файл.

Вверх