Loading...
Error

Футурама: В дикую зелёную даль / Futurama: Into the Wild Green Yonder (Питер Аванзино / Peter Avanzino) [2009, Фантастика, комедия, анимационный, BDRemux 1080p] MVO Sub Rus + Original Eng

Статистика раздачи
Размер:  17,83 GB   |    Зарегистрирован:  3 года 5 месяцев   |    Скачан:  10 раз

Полного источника не было: 2 дня 4 часа

Сидов:  0  |  0 KB/s  ]   Личеров:  0  |  0 KB/s  ]

* - сиды/пиры с внешних источников

   
 
Автор Сообщение

uzi2009 Пол:Муж

01-Май-2014 19:05

Футурама: В дикую зелёную даль / Futurama: Into the Wild Green Yonder

Год выпуска: 2009
Страна: США
Жанр: Фантастика, комедия, мультфильм
Продолжительность: 1:29:16

Перевод: Профессиональный (многоголосый закадровый) (лицензия)
Cубтитры: русские(лицензия), русские(лепрозорий), английские
Оригинальная аудиодорожка: английский

Режиссер: Питер Аванзино / Peter Avanzino

В ролях: Билли Уэст, Кэти Сагал, Джон Ди Маджио, Тресс МакНилл, Морис ЛаМарш, Фил ЛаМарр, Лоурен Том, Дэвид Херман и др.

Описание: Реальная эпическая научно-фантастическая история, которая вовлекает персонажей в древнее сражение, длившееся на протяжении миллиардов лет, и наша команда, конечно, оказывается в её эпицентре…

Доп. Информация:Исходник: Futurama Into The Wild Green Yonder 2009 1080p Blu-ray Remux AVC DTS-HD MA 5.1 - KRaLiMaRKo

Тип релиза: BDRemux 1080p
Контейнер: MKV

Видео: MPEG-4 AVC Video 25 Mbps 1080p / 23.976 fps / 16:9 / High Profile 4.1
Аудио 1: Russian - (Dolby AC3, 6 ch, 384 Кбит/сек, 48,0 КГц),
Аудио 2: English - DTS-HD Master Audio 2611 kbps 5.1 / 48 kHz / 2611 kbps / 24-bit (DTS Core: 5.1 / 48 kHz / 1510 kbps / 24-bit
Формат субтитров: softsub (SRT)

pic pic pic pic pic
Общее
Уникальный идентификатор : 222098202118212455786677376379353796590 (0xA7168ECC55BD20B9BE04A9E7CA078FEE)
Полное имя : F:\4\Futurama_BD_Raz\Futurama Into The Wild Green Yonder 2009 1080p Blu-ray Remux HQ-DVD.mkv
Формат : Matroska
Версия формата : Version 2
Размер файла : 17,8 Гбайт
Продолжительность : 1 ч. 29 м.
Режим общего битрейта : Переменный
Общий поток : 28,6 Мбит/сек
Название фильма : Futurama Into The Wild Green Yonder 2009 1080p Blu-ray Remux AVC DTS-HD MA 5.1 - KRaLiMaRKo
Дата кодирования : UTC 2012-04-07 11:50:21
Программа кодирования : mkvmerge v5.2.1 ('A Far Off Place') built on Jan 2 2012 23:21:10
Библиотека кодирования : libebml v1.2.3 + libmatroska v1.3.0

Видео
Идентификатор : 1
Формат : AVC
Формат/Информация : Advanced Video Codec
Профиль формата : High@L4.1
Параметр CABAC формата : Да
Параметр ReFrames формата : 4 кадра
Идентификатор кодека : V_MPEG4/ISO/AVC
Продолжительность : 1 ч. 29 м.
Вид битрейта : Переменный
Битрейт : 25,0 Мбит/сек
Максимальный битрейт : 36,0 Мбит/сек
Ширина : 1920 пикселей
Высота : 1080 пикселей
Соотношение сторон : 16:9
Частота кадров : 23,976 кадра/сек
Цветовое пространство : YUV
Субдискретизация насыщенности : 4:2:0
Битовая глубина : 8 бит
Тип развёртки : Прогрессивная
Бит/(Пиксели*Кадры) : 0.503
Размер потока : 15,6 Гбайт (87%)
Default : Да
Forced : Нет
Основные цвета : BT.709-5, BT.1361, IEC 61966-2-4, SMPTE RP177
Характеристики трансфера : BT.709-5, BT.1361
Коэффициенты матрицы : BT.709-5, BT.1361, IEC 61966-2-4 709, SMPTE RP177

Аудио #1
Идентификатор : 2
Формат : DTS
Формат/Информация : Digital Theater Systems
Профиль формата : MA / Core
Идентификатор кодека : A_DTS
Продолжительность : 1 ч. 29 м.
Вид битрейта : Переменный
Битрейт : 2629 Кбит/сек / 1510 Кбит/сек
Каналы : 6 каналов
Расположение каналов : Front: L C R, Side: L R, LFE
Частота : 48,0 КГц
Битовая глубина : 24 бит
Метод сжатия : Без потерь / Lossy
Язык : English
Default : Нет
Forced : Нет

Аудио #2
Идентификатор : 3
Формат : AC-3
Формат/Информация : Audio Coding 3
Расширение режима : CM (complete main)
Идентификатор кодека : A_AC3
Продолжительность : 1 ч. 29 м.
Вид битрейта : Постоянный
Битрейт : 384 Кбит/сек
Каналы : 6 каналов
Расположение каналов : Front: L C R, Side: L R, LFE
Частота : 48,0 КГц
Битовая глубина : 16 бит
Метод сжатия : С потерями
Размер потока : 245 Мбайт (1%)
Язык : Russian
Default : Да
Forced : Нет

Текст #1
Идентификатор : 4
Формат : UTF-8
Идентификатор кодека : S_TEXT/UTF8
Идентификатор кодека/Информация : UTF-8 Plain Text
Язык : English
Default : Да
Forced : Нет

Текст #2
Идентификатор : 5
Формат : UTF-8
Идентификатор кодека : S_TEXT/UTF8
Идентификатор кодека/Информация : UTF-8 Plain Text
Язык : Russian
Default : Нет
Forced : Нет

Текст #3
Идентификатор : 6
Формат : UTF-8
Идентификатор кодека : S_TEXT/UTF8
Идентификатор кодека/Информация : UTF-8 Plain Text
Язык : Russian
Default : Нет
Forced : Нет

Меню
00:00:00.000 : :1
00:08:47.693 : :2
00:16:49.466 : :3
00:22:25.052 : :4
00:30:26.115 : :5
00:35:32.213 : :6
00:43:42.244 : :7
00:51:25.707 : :8
00:58:37.263 : :9
01:05:23.628 : :10
01:11:28.075 : :11
01:15:16.178 : :12


Релиз групп:

Этот торрент недоступен для скачивания без регистрации, однако доступен по публичной magnet-ссылке (источники с публичных трекеров). Перед использованием ссылки прочтите, пожалуйста Пользовательское соглашение, а также как можно дольше оставайтесь на раздаче! Для того, чтобы скачать сам торрент-файл (который видит больше источников), а также для того, чтобы поблагодарить релизера, вам необходимо зарегистрироваться. Если регистрироваться лень - вы можете также попробовать скачать релиз по нашим партнерским ссылкам ниже.

[underverse.su].t39558.torrent
Трекер: Зарегистрирован   [ 01.05.2014 19:05 ]  

Статус: проверено (by 90ytr90 at 02.05.2014 10:07)
Поблагодарили: пока никто не поблагодарил...
Тип торрента: публичный - доступные источники с открытых трекеров: 
Размер: 17,83 GB (занимает 4,07 DVDR, для записи нужно 5 болванок DVDR/RW)
 
 
Похожие темы
Форум Тема Автор Торрент Отв. Посл. сооб.
Мультфильмы HQ Футурама: В дикие зеленые дали / Futurama: Into the Wild Green Yonder (Питер Аванзино) [2009 г., Фантастика, комедия, мультфильм, BDRip] Паукан
0 | 0

1 | 2191

7

02.10.2010 07:43

Мультфильмы [DVD / HDDVD / BD / Remux] Футурама: Игра Бендера / Futurama: Benders Game (Дуэйн Кэри-Хилл / Dwayne Carey-Hill) [2008 г., Фантастика, Комедия, Мультфильм, BDRemux 1080p] uzi2009
1 | 0

0 | 807

5

01.05.2014 16:59


Яндекс.Метрика powered by Sphinx


В Н И М А Н И Е
Сайт не распространяет и не хранит электронные версии произведений, а лишь бесплатно и без коммерческой выгоды (не требуя взамен платы,
SMS и т.д.) предоставляет доступ к создаваемому пользователями каталогу ссылок на торрент-файлы, которые содержат только списки хеш-сумм.
Убедительная просьба с жалобами обращаться напрямую к пользователю, разместившему торрент файл.

Вверх