Loading...
Error

Джули и Джулия: Готовим счастье по рецепту / Julie & Julia (Нора Эфрон / Nora Ephron) [2009 г., комедия, мелодрама, биография, Blu-ray]

Статистика раздачи
Размер:  45,1 GB   |    Зарегистрирован:  4 года   |    Скачан:  2 раза

Полного источника не было: 2 года 8 месяцев

Сидов:  0  |  0 KB/s  ]   Личеров:  0  |  0 KB/s  ]

* - сиды/пиры с внешних источников

   
 
Автор Сообщение

uzi2009 Пол:Муж

30-Апр-2014 10:12

Джули и Джулия: Готовим счастье по рецепту / Julie & Julia
«Passion. Ambition. Butter. Do You Have What It Takes?»


Год выпуска: 2009
Страна: США
Жанр: комедия, мелодрама, биография
Продолжительность: 02:03:12
Перевод: Профессиональный (полное дублирование)
Русские субтитры: нет

Режиссер: Нора Эфрон / Nora Ephron

В ролях: Мэрил Стрип, Эми Адамс, Стэнли Туччи, Крис Мессина, Линда Эмонд, Хелен Кэри, Мэри Линн Рэжскуб, Джейн Линч, Джоан Бак, Кристал Ноэль, George Bartenieff, Ванесса Ферлито, Кэйси Уилсон, Джиллиан Бах, Эндрю Гарман, Майкл Брайан Данн, Римэк Рамсей, Diane Kagan, Памела Стюарт, Джефф Брукс, Фрэнсис Штернхеген

Описание: Фильм расскажет о секретарше Джули Пауэлл — в течение года пытающейся приготовить 524 блюда по рецептам, описанным в книге Джулии Чайлд «Как овладеть искусством французской кухни». Все свои победы и поражения на кулинарном фронте девушка описывала в блоге.
Премия «Золотой глобус» и номинация на премию «Оскар» за Лучшую женскую роль (комедия или мюзикл) (Мэрил Стрип), 2010г.
* Съемки проходили в Нью-Йорке и на железнодорожной станции в Хобокене, Нью-Джерси.
* Реальная Джулия Пауэлл принимала участие в написании сценария к фильму.
* Мерил Стрип на 15 сантиметров ниже своей героини, поэтому авторы фильма старались сделать её выше при помощи операторских и костюмерских приемов.


Качество: Blu-ray
Формат:BDMV
Видео кодек: AVC MPEG-4
Аудио кодек: Dolby Digital 5.1
Видео:1080p / 23.976 fps / 16:9 / High Profile 4.1 / 22841 kbps
Аудио №1: Английский DTS-HD MA 5.1 / 48 kHz / 2937 kbps / 24-bit
Аудио №2: Чешский Dolby Digital 5.1 / 48 kHz / 640 kbps
Аудио №3: Венгерский Dolby Digital 5.1 / 48 kHz / 640 kbps
Аудио №4: Польский Dolby Digital 5.1 / 48 kHz / 640 kbps
Аудио №5: Русский Dolby Digital 5.1 / 48 kHz / 640 kbps (Дубляж)
Аудио №6: Турецкий Dolby Digital 5.1 / 48 kHz / 640 kbps
Аудио №7: Английский Dolby Digital 2.0 / 48 kHz / 192 kbps

Субтитры: Английский, Арабский, Болгарский, Хорватский, Эстонский, Греческий, Иврит, Хинди, Венгерский, Исландский, Литовский, Польский, Румынский, Сербский, Словацкий, Словенский, Турецкий, Украинский
pic pic pic pic pic
Disc Title: Julie and Julia 2009 1080p BluRay CEE AVC DTSHD MA-EiMi
Disc Size: 48 422 164 125 bytes
Protection: AACS
BD-Java: Yes
BDInfo: 0.5.1

Notes:

BDINFO HOME AND REPORTS SUBMISSION:
Cinema Squid
http://www.cinemasquid.com/Tools.aspx

INCLUDES FORUMS REPORT FOR:
Unofficial Blu-ray Audio and Video Specifications Thread
http://www.avsforum.com/avs-vb/showthread.php?t=760714
http://forum.blu-ray.com/showthread.php?t=3338

********************
PLAYLIST: 00001.MPLS
********************

Код:

Total   Video
Title                                                           Codec   Length  Movie Size      Disc Size       Bitrate Bitrate Main Audio Track                          Secondary Audio Track
-----                                                           ------  ------- --------------  --------------  ------- ------- ------------------                        ---------------------
00001.MPLS                                                      AVC     2:03:12 5 646 908 352   48 422 164 125  6.11    22.84   DTS-HD Master 5.1 2937Kbps (48kHz/24-bit)


Код:

DISC INFO:

Disc Title:     Julie and Julia 2009 1080p BluRay CEE AVC DTSHD MA-EiMi
Disc Size:      48 422 164 125 bytes
Protection:     AACS
BD-Java:        Yes
BDInfo:         0.5.1

PLAYLIST REPORT:

Name:                   00001.MPLS
Size:                   5 646 908 352 bytes
Length:                 2:03:12 (h:m:s)
Total Bitrate:          6.11 Mbps
Description:

VIDEO:

Codec                   Bitrate             Description
-----                   -------             -----------
MPEG-4 AVC Video        22841 kbps          1080p / 23.976 fps / 16:9 / High Profile 4.1

AUDIO:

Codec                           Language        Bitrate         Description
-----                           --------        -------         -----------
DTS-HD Master Audio             English         2937 kbps       5.1 / 48 kHz / 2937 kbps / 24-bit (DTS Core: 5.1 / 48 kHz / 1509 kbps / 24-bit)
Dolby Digital Audio             Czech           640 kbps        5.1 / 48 kHz / 640 kbps
Dolby Digital Audio             Hungarian       640 kbps        5.1 / 48 kHz / 640 kbps
Dolby Digital Audio             Polish          640 kbps        5.1 / 48 kHz / 640 kbps
Dolby Digital Audio             Russian         640 kbps        5.1 / 48 kHz / 640 kbps
Dolby Digital Audio             Turkish         640 kbps        5.1 / 48 kHz / 640 kbps
Dolby Digital Audio             English         192 kbps        2.0 / 48 kHz / 192 kbps / Dolby Surround

SUBTITLES:

Codec                           Language        Bitrate         Description
-----                           --------        -------         -----------
Presentation Graphics           English         43.303 kbps
Presentation Graphics           English         53.129 kbps
Presentation Graphics           Arabic          21.986 kbps
Presentation Graphics           Bulgarian       45.682 kbps
Presentation Graphics           Croatian        42.421 kbps
Presentation Graphics           Czech           36.943 kbps
Presentation Graphics           Estonian        43.178 kbps
Presentation Graphics           Greek           45.933 kbps
Presentation Graphics           Hebrew          30.667 kbps
Presentation Graphics           Hindi           38.741 kbps
Presentation Graphics           Hungarian       35.205 kbps
Presentation Graphics           Icelandic       41.928 kbps
Presentation Graphics           Lithuanian      44.685 kbps
Presentation Graphics           Polish          39.122 kbps
Presentation Graphics           Romanian        40.998 kbps
Presentation Graphics           Russian         2.260 kbps
Presentation Graphics           Serbian         43.407 kbps
Presentation Graphics           Slovak          39.574 kbps
Presentation Graphics           Slovenian       40.067 kbps
Presentation Graphics           Turkish         46.201 kbps
Presentation Graphics           Ukrainian       38.259 kbps

FILES:

Name            Time In         Length          Size            Total Bitrate
----            -------         ------          ----            -------------
00011.M2TS      0:00:00.000     2:03:12.385     5 647 097 472   31 961

CHAPTERS:

Number          Time In         Length          Avg Video Rate  Max 1-Sec Rate  Max 1-Sec Time  Max 5-Sec Rate  Max 5-Sec Time  Max 10Sec Rate  Max 10Sec Time  Avg Frame Size  Max Frame Size  Max Frame Time
------          -------         ------          --------------  --------------  --------------  --------------  --------------  --------------  --------------  --------------  --------------  --------------
1               0:00:00.000     0:08:22.376     23 060 kbps     49 009 kbps     00:00:36.161    30 170 kbps     00:06:41.234    28 477 kbps     00:00:36.161    120 215 bytes   642 987 bytes   00:01:13.490
2               0:08:22.376     0:08:00.771     22 344 kbps     31 169 kbps     00:12:08.018    27 078 kbps     00:13:46.492    26 490 kbps     00:14:17.064    116 493 bytes   560 001 bytes   00:12:15.526
3               0:16:23.148     0:05:13.855     23 282 kbps     38 833 kbps     00:18:16.136    32 201 kbps     00:18:16.136    30 701 kbps     00:18:16.136    121 381 bytes   643 526 bytes   00:19:13.443
4               0:21:37.004     0:07:32.034     5 906 kbps      33 660 kbps     00:22:08.827    28 731 kbps     00:23:28.198    27 744 kbps     00:23:24.069    118 851 bytes   607 665 bytes   00:22:09.036
5               0:29:09.038     0:08:36.599     0 kbps          0 kbps          00:00:00.000    0 kbps          00:00:00.000    0 kbps          00:00:00.000    0 bytes         0 bytes         00:00:00.000
6               0:37:45.638     0:04:37.610     0 kbps          0 kbps          00:00:00.000    0 kbps          00:00:00.000    0 kbps          00:00:00.000    0 bytes         0 bytes         00:00:00.000
7               0:42:23.249     0:08:04.692     0 kbps          0 kbps          00:00:00.000    0 kbps          00:00:00.000    0 kbps          00:00:00.000    0 bytes         0 bytes         00:00:00.000
8               0:50:27.941     0:06:07.742     0 kbps          0 kbps          00:00:00.000    0 kbps          00:00:00.000    0 kbps          00:00:00.000    0 bytes         0 bytes         00:00:00.000
9               0:56:35.683     0:07:03.089     0 kbps          0 kbps          00:00:00.000    0 kbps          00:00:00.000    0 kbps          00:00:00.000    0 bytes         0 bytes         00:00:00.000
10              1:03:38.773     0:05:48.890     0 kbps          0 kbps          00:00:00.000    0 kbps          00:00:00.000    0 kbps          00:00:00.000    0 bytes         0 bytes         00:00:00.000
11              1:09:27.663     0:07:33.995     0 kbps          0 kbps          00:00:00.000    0 kbps          00:00:00.000    0 kbps          00:00:00.000    0 bytes         0 bytes         00:00:00.000
12              1:17:01.658     0:09:27.692     0 kbps          0 kbps          00:00:00.000    0 kbps          00:00:00.000    0 kbps          00:00:00.000    0 bytes         0 bytes         00:00:00.000
13              1:26:29.350     0:08:16.954     0 kbps          0 kbps          00:00:00.000    0 kbps          00:00:00.000    0 kbps          00:00:00.000    0 bytes         0 bytes         00:00:00.000
14              1:34:46.305     0:06:05.198     0 kbps          0 kbps          00:00:00.000    0 kbps          00:00:00.000    0 kbps          00:00:00.000    0 bytes         0 bytes         00:00:00.000
15              1:40:51.503     0:07:36.164     0 kbps          0 kbps          00:00:00.000    0 kbps          00:00:00.000    0 kbps          00:00:00.000    0 bytes         0 bytes         00:00:00.000
16              1:48:27.667     0:14:44.717     0 kbps          0 kbps          00:00:00.000    0 kbps          00:00:00.000    0 kbps          00:00:00.000    0 bytes         0 bytes         00:00:00.000

STREAM DIAGNOSTICS:

File            PID             Type            Codec           Language                Seconds                 Bitrate                 Bytes           Packets
----            ---             ----            -----           --------                --------------          --------------          -------------   -----
00011.M2TS      4113 (0x1011)   0x1B            AVC                                     1414.121                22 844                  4 038 054 639   21 965 741
00011.M2TS      4352 (0x1100)   0x86            DTS-HD MA       eng (English)           1414.121                2 937                   519 154 467     3 042 286
00011.M2TS      4353 (0x1101)   0x81            AC3             ces (Czech)             1414.121                640                     113 078 295     662 568
00011.M2TS      4354 (0x1102)   0x81            AC3             hun (Hungarian)         1414.121                640                     113 078 295     662 568
00011.M2TS      4355 (0x1103)   0x81            AC3             pol (Polish)            1414.121                640                     113 078 295     662 568
00011.M2TS      4356 (0x1104)   0x81            AC3             rus (Russian)           1414.121                640                     113 078 295     662 568
00011.M2TS      4357 (0x1105)   0x81            AC3             tur (Turkish)           1414.121                640                     113 078 295     662 568
00011.M2TS      4358 (0x1106)   0x81            AC3             eng (English)           1414.121                192                     33 936 151      220 938
00011.M2TS      4608 (0x1200)   0x90            PGS             eng (English)           1414.121                43                      7 651 064       43 629
00011.M2TS      4609 (0x1201)   0x90            PGS             ces (Czech)             1414.121                37                      6 527 381       37 533
00011.M2TS      4610 (0x1202)   0x90            PGS             hun (Hungarian)         1414.121                35                      6 220 217       35 789
00011.M2TS      4611 (0x1203)   0x90            PGS             pol (Polish)            1414.121                39                      6 912 349       39 585
00011.M2TS      4612 (0x1204)   0x90            PGS             tur (Turkish)           1414.121                46                      8 163 102       46 486
00011.M2TS      4613 (0x1205)   0x90            PGS             ara (Arabic)            1414.121                22                      3 884 722       23 187
00011.M2TS      4614 (0x1206)   0x90            PGS             bul (Bulgarian)         1414.121                46                      8 071 430       46 015
00011.M2TS      4615 (0x1207)   0x90            PGS             hrv (Croatian)          1414.121                42                      7 495 263       42 855
00011.M2TS      4616 (0x1208)   0x90            PGS             est (Estonian)          1414.121                43                      7 629 007       43 487
00011.M2TS      4617 (0x1209)   0x90            PGS             ell (Greek)             1414.121                46                      8 115 749       46 189
00011.M2TS      4618 (0x120A)   0x90            PGS             heb (Hebrew)            1414.121                31                      5 427 613       31 888
00011.M2TS      4619 (0x120B)   0x90            PGS             hin (Hindi)             1414.121                39                      6 844 944       39 340
00011.M2TS      4620 (0x120C)   0x90            PGS             isl (Icelandic)         1414.121                42                      7 408 114       42 347
00011.M2TS      4621 (0x120D)   0x90            PGS             lit (Lithuanian)        1414.121                45                      7 895 312       45 170
00011.M2TS      4622 (0x120E)   0x90            PGS             ron (Romanian)          1414.121                41                      7 243 793       41 745
00011.M2TS      4623 (0x120F)   0x90            PGS             srp (Serbian)           1414.121                43                      7 669 499       43 855
00011.M2TS      4624 (0x1210)   0x90            PGS             slk (Slovak)            1414.121                40                      6 992 122       40 095
00011.M2TS      4625 (0x1211)   0x90            PGS             slv (Slovenian)         1414.121                40                      7 079 326       40 585
00011.M2TS      4626 (0x1212)   0x90            PGS             ukr (Ukrainian)         1414.121                38                      6 759 891       38 746
00011.M2TS      4627 (0x1213)   0x90            PGS             rus (Russian)           1414.121                2                       399 332         2 283
00011.M2TS      4628 (0x1214)   0x90            PGS             eng (English)           1414.121                53                      9 387 254       53 217


********************
PLAYLIST: 00245.MPLS
********************

Код:

Total   Video
Title                                                           Codec   Length  Movie Size      Disc Size       Bitrate Bitrate Main Audio Track                          Secondary Audio Track
-----                                                           ------  ------- --------------  --------------  ------- ------- ------------------                        ---------------------
00245.MPLS                                                      MPEG-2  0:47:39 0               48 422 164 125  0.00    0.00    DD AC3 2.0 192Kbps


Код:

DISC INFO:

Disc Title:     Julie and Julia 2009 1080p BluRay CEE AVC DTSHD MA-EiMi
Disc Size:      48 422 164 125 bytes
Protection:     AACS
BD-Java:        Yes
BDInfo:         0.5.1

PLAYLIST REPORT:

Name:                   00245.MPLS
Size:                   0 bytes
Length:                 0:47:39 (h:m:s)
Total Bitrate:          0.00 Mbps
Description:

VIDEO:

Codec                   Bitrate             Description
-----                   -------             -----------
MPEG-2 Video            0 kbps              1080p / 23.976 fps / 16:9

AUDIO:

Codec                           Language        Bitrate         Description
-----                           --------        -------         -----------
Dolby Digital Audio             English         192 kbps        2.0 / 48 kHz / 192 kbps

SUBTITLES:

Codec                           Language        Bitrate         Description
-----                           --------        -------         -----------
Presentation Graphics           English         0.000 kbps

FILES:

Name            Time In         Length          Size            Total Bitrate
----            -------         ------          ----            -------------
00541.M2TS      0:00:00.000     0:47:39.606     0               0

CHAPTERS:

Number          Time In         Length          Avg Video Rate  Max 1-Sec Rate  Max 1-Sec Time  Max 5-Sec Rate  Max 5-Sec Time  Max 10Sec Rate  Max 10Sec Time  Avg Frame Size  Max Frame Size  Max Frame Time
------          -------         ------          --------------  --------------  --------------  --------------  --------------  --------------  --------------  --------------  --------------  --------------
1               0:00:00.000     0:47:39.606     0 kbps          0 kbps          00:00:00.000    0 kbps          00:00:00.000    0 kbps          00:00:00.000    0 bytes         0 bytes         00:00:00.000

STREAM DIAGNOSTICS:

File            PID             Type            Codec           Language                Seconds                 Bitrate                 Bytes           Packets
----            ---             ----            -----           --------                --------------          --------------          -------------   -----
00541.M2TS      4113 (0x1011)   0x02            MPEG-2                                  0                       0                       0               0
00541.M2TS      4352 (0x1100)   0x81            AC3             eng (English)           0                       0                       0               0
00541.M2TS      4608 (0x1200)   0x90            PGS             eng (English)           0                       0                       0               0


********************
PLAYLIST: 00244.MPLS
********************

Код:

Total   Video
Title                                                           Codec   Length  Movie Size      Disc Size       Bitrate Bitrate Main Audio Track                          Secondary Audio Track
-----                                                           ------  ------- --------------  --------------  ------- ------- ------------------                        ---------------------
00244.MPLS                                                      MPEG-2  0:27:44 0               48 422 164 125  0.00    0.00    DD AC3 2.0 192Kbps


Код:

DISC INFO:

Disc Title:     Julie and Julia 2009 1080p BluRay CEE AVC DTSHD MA-EiMi
Disc Size:      48 422 164 125 bytes
Protection:     AACS
BD-Java:        Yes
BDInfo:         0.5.1

PLAYLIST REPORT:

Name:                   00244.MPLS
Size:                   0 bytes
Length:                 0:27:44 (h:m:s)
Total Bitrate:          0.00 Mbps
Description:

VIDEO:

Codec                   Bitrate             Description
-----                   -------             -----------
MPEG-2 Video            0 kbps              1080p / 23.976 fps / 16:9

AUDIO:

Codec                           Language        Bitrate         Description
-----                           --------        -------         -----------
Dolby Digital Audio             English         192 kbps        2.0 / 48 kHz / 192 kbps

SUBTITLES:

Codec                           Language        Bitrate         Description
-----                           --------        -------         -----------
Presentation Graphics           English         0.000 kbps

FILES:

Name            Time In         Length          Size            Total Bitrate
----            -------         ------          ----            -------------
00539.M2TS      0:00:00.000     0:27:44.204     0               0

CHAPTERS:

Number          Time In         Length          Avg Video Rate  Max 1-Sec Rate  Max 1-Sec Time  Max 5-Sec Rate  Max 5-Sec Time  Max 10Sec Rate  Max 10Sec Time  Avg Frame Size  Max Frame Size  Max Frame Time
------          -------         ------          --------------  --------------  --------------  --------------  --------------  --------------  --------------  --------------  --------------  --------------
1               0:00:00.000     0:27:44.204     0 kbps          0 kbps          00:00:00.000    0 kbps          00:00:00.000    0 kbps          00:00:00.000    0 bytes         0 bytes         00:00:00.000

STREAM DIAGNOSTICS:

File            PID             Type            Codec           Language                Seconds                 Bitrate                 Bytes           Packets
----            ---             ----            -----           --------                --------------          --------------          -------------   -----
00539.M2TS      4113 (0x1011)   0x02            MPEG-2                                  0                       0                       0               0
00539.M2TS      4352 (0x1100)   0x81            AC3             eng (English)           0                       0                       0               0
00539.M2TS      4608 (0x1200)   0x90            PGS             eng (English)           0                       0                       0               0


********************
PLAYLIST: 00246.MPLS
********************

Код:

Total   Video
Title                                                           Codec   Length  Movie Size      Disc Size       Bitrate Bitrate Main Audio Track                          Secondary Audio Track
-----                                                           ------  ------- --------------  --------------  ------- ------- ------------------                        ---------------------
00246.MPLS                                                      MPEG-2  0:22:31 0               48 422 164 125  0.00    0.00    DD AC3 2.0 192Kbps


Код:

DISC INFO:

Disc Title:     Julie and Julia 2009 1080p BluRay CEE AVC DTSHD MA-EiMi
Disc Size:      48 422 164 125 bytes
Protection:     AACS
BD-Java:        Yes
BDInfo:         0.5.1

PLAYLIST REPORT:

Name:                   00246.MPLS
Size:                   0 bytes
Length:                 0:22:31 (h:m:s)
Total Bitrate:          0.00 Mbps
Description:

VIDEO:

Codec                   Bitrate             Description
-----                   -------             -----------
MPEG-2 Video            0 kbps              1080p / 23.976 fps / 16:9

AUDIO:

Codec                           Language        Bitrate         Description
-----                           --------        -------         -----------
Dolby Digital Audio             English         192 kbps        2.0 / 48 kHz / 192 kbps

SUBTITLES:

Codec                           Language        Bitrate         Description
-----                           --------        -------         -----------
Presentation Graphics           English         0.000 kbps

FILES:

Name            Time In         Length          Size            Total Bitrate
----            -------         ------          ----            -------------
00543.M2TS      0:00:00.000     0:22:31.850     0               0

CHAPTERS:

Number          Time In         Length          Avg Video Rate  Max 1-Sec Rate  Max 1-Sec Time  Max 5-Sec Rate  Max 5-Sec Time  Max 10Sec Rate  Max 10Sec Time  Avg Frame Size  Max Frame Size  Max Frame Time
------          -------         ------          --------------  --------------  --------------  --------------  --------------  --------------  --------------  --------------  --------------  --------------
1               0:00:00.000     0:22:31.850     0 kbps          0 kbps          00:00:00.000    0 kbps          00:00:00.000    0 kbps          00:00:00.000    0 bytes         0 bytes         00:00:00.000

STREAM DIAGNOSTICS:

File            PID             Type            Codec           Language                Seconds                 Bitrate                 Bytes           Packets
----            ---             ----            -----           --------                --------------          --------------          -------------   -----
00543.M2TS      4113 (0x1011)   0x02            MPEG-2                                  0                       0                       0               0
00543.M2TS      4352 (0x1100)   0x81            AC3             eng (English)           0                       0                       0               0
00543.M2TS      4608 (0x1200)   0x90            PGS             eng (English)           0                       0                       0               0


********************
PLAYLIST: 00250.MPLS
********************

Код:

Total   Video
Title                                                           Codec   Length  Movie Size      Disc Size       Bitrate Bitrate Main Audio Track                          Secondary Audio Track
-----                                                           ------  ------- --------------  --------------  ------- ------- ------------------                        ---------------------
00250.MPLS                                                      MPEG-2  0:05:44 0               48 422 164 125  0.00    0.00    DD AC3 2.0 192Kbps


Код:

DISC INFO:

Disc Title:     Julie and Julia 2009 1080p BluRay CEE AVC DTSHD MA-EiMi
Disc Size:      48 422 164 125 bytes
Protection:     AACS
BD-Java:        Yes
BDInfo:         0.5.1

PLAYLIST REPORT:

Name:                   00250.MPLS
Size:                   0 bytes
Length:                 0:05:44 (h:m:s)
Total Bitrate:          0.00 Mbps
Description:

VIDEO:

Codec                   Bitrate             Description
-----                   -------             -----------
MPEG-2 Video            0 kbps              1080i / 29.970 fps / 16:9

AUDIO:

Codec                           Language        Bitrate         Description
-----                           --------        -------         -----------
Dolby Digital Audio             English         192 kbps        2.0 / 48 kHz / 192 kbps

SUBTITLES:

Codec                           Language        Bitrate         Description
-----                           --------        -------         -----------
Presentation Graphics           English         0.000 kbps

FILES:

Name            Time In         Length          Size            Total Bitrate
----            -------         ------          ----            -------------
00547.M2TS      0:00:00.000     0:05:44.143     0               0

CHAPTERS:

Number          Time In         Length          Avg Video Rate  Max 1-Sec Rate  Max 1-Sec Time  Max 5-Sec Rate  Max 5-Sec Time  Max 10Sec Rate  Max 10Sec Time  Avg Frame Size  Max Frame Size  Max Frame Time
------          -------         ------          --------------  --------------  --------------  --------------  --------------  --------------  --------------  --------------  --------------  --------------
1               0:00:00.000     0:05:44.143     0 kbps          0 kbps          00:00:00.000    0 kbps          00:00:00.000    0 kbps          00:00:00.000    0 bytes         0 bytes         00:00:00.000

STREAM DIAGNOSTICS:

File            PID             Type            Codec           Language                Seconds                 Bitrate                 Bytes           Packets
----            ---             ----            -----           --------                --------------          --------------          -------------   -----
00547.M2TS      4113 (0x1011)   0x02            MPEG-2                                  0                       0                       0               0
00547.M2TS      4352 (0x1100)   0x81            AC3             eng (English)           0                       0                       0               0
00547.M2TS      4608 (0x1200)   0x90            PGS             eng (English)           0                       0                       0               0


********************
PLAYLIST: 00251.MPLS
********************

Код:

Total   Video
Title                                                           Codec   Length  Movie Size      Disc Size       Bitrate Bitrate Main Audio Track                          Secondary Audio Track
-----                                                           ------  ------- --------------  --------------  ------- ------- ------------------                        ---------------------
00251.MPLS                                                      MPEG-2  0:05:26 0               48 422 164 125  0.00    0.00    DD AC3 2.0 192Kbps


Код:

DISC INFO:

Disc Title:     Julie and Julia 2009 1080p BluRay CEE AVC DTSHD MA-EiMi
Disc Size:      48 422 164 125 bytes
Protection:     AACS
BD-Java:        Yes
BDInfo:         0.5.1

PLAYLIST REPORT:

Name:                   00251.MPLS
Size:                   0 bytes
Length:                 0:05:26 (h:m:s)
Total Bitrate:          0.00 Mbps
Description:

VIDEO:

Codec                   Bitrate             Description
-----                   -------             -----------
MPEG-2 Video            0 kbps              1080i / 29.970 fps / 16:9

AUDIO:

Codec                           Language        Bitrate         Description
-----                           --------        -------         -----------
Dolby Digital Audio             English         192 kbps        2.0 / 48 kHz / 192 kbps

SUBTITLES:

Codec                           Language        Bitrate         Description
-----                           --------        -------         -----------
Presentation Graphics           English         0.000 kbps

FILES:

Name            Time In         Length          Size            Total Bitrate
----            -------         ------          ----            -------------
05002.M2TS      0:00:00.000     0:05:26.159     0               0

CHAPTERS:

Number          Time In         Length          Avg Video Rate  Max 1-Sec Rate  Max 1-Sec Time  Max 5-Sec Rate  Max 5-Sec Time  Max 10Sec Rate  Max 10Sec Time  Avg Frame Size  Max Frame Size  Max Frame Time
------          -------         ------          --------------  --------------  --------------  --------------  --------------  --------------  --------------  --------------  --------------  --------------
1               0:00:00.000     0:05:26.159     0 kbps          0 kbps          00:00:00.000    0 kbps          00:00:00.000    0 kbps          00:00:00.000    0 bytes         0 bytes         00:00:00.000

STREAM DIAGNOSTICS:

File            PID             Type            Codec           Language                Seconds                 Bitrate                 Bytes           Packets
----            ---             ----            -----           --------                --------------          --------------          -------------   -----
05002.M2TS      4113 (0x1011)   0x02            MPEG-2                                  0                       0                       0               0
05002.M2TS      4352 (0x1100)   0x81            AC3             eng (English)           0                       0                       0               0
05002.M2TS      4608 (0x1200)   0x90            PGS             eng (English)           0                       0                       0               0


********************
PLAYLIST: 00249.MPLS
********************

Код:

Total   Video
Title                                                           Codec   Length  Movie Size      Disc Size       Bitrate Bitrate Main Audio Track                          Secondary Audio Track
-----                                                           ------  ------- --------------  --------------  ------- ------- ------------------                        ---------------------
00249.MPLS                                                      MPEG-2  0:04:50 0               48 422 164 125  0.00    0.00    DD AC3 2.0 192Kbps


Код:

DISC INFO:

Disc Title:     Julie and Julia 2009 1080p BluRay CEE AVC DTSHD MA-EiMi
Disc Size:      48 422 164 125 bytes
Protection:     AACS
BD-Java:        Yes
BDInfo:         0.5.1

PLAYLIST REPORT:

Name:                   00249.MPLS
Size:                   0 bytes
Length:                 0:04:50 (h:m:s)
Total Bitrate:          0.00 Mbps
Description:

VIDEO:

Codec                   Bitrate             Description
-----                   -------             -----------
MPEG-2 Video            0 kbps              1080i / 29.970 fps / 16:9

AUDIO:

Codec                           Language        Bitrate         Description
-----                           --------        -------         -----------
Dolby Digital Audio             English         192 kbps        2.0 / 48 kHz / 192 kbps

SUBTITLES:

Codec                           Language        Bitrate         Description
-----                           --------        -------         -----------
Presentation Graphics           English         0.000 kbps

FILES:

Name            Time In         Length          Size            Total Bitrate
----            -------         ------          ----            -------------
00546.M2TS      0:00:00.000     0:04:50.290     0               0

CHAPTERS:

Number          Time In         Length          Avg Video Rate  Max 1-Sec Rate  Max 1-Sec Time  Max 5-Sec Rate  Max 5-Sec Time  Max 10Sec Rate  Max 10Sec Time  Avg Frame Size  Max Frame Size  Max Frame Time
------          -------         ------          --------------  --------------  --------------  --------------  --------------  --------------  --------------  --------------  --------------  --------------
1               0:00:00.000     0:04:50.290     0 kbps          0 kbps          00:00:00.000    0 kbps          00:00:00.000    0 kbps          00:00:00.000    0 bytes         0 bytes         00:00:00.000

STREAM DIAGNOSTICS:

File            PID             Type            Codec           Language                Seconds                 Bitrate                 Bytes           Packets
----            ---             ----            -----           --------                --------------          --------------          -------------   -----
00546.M2TS      4113 (0x1011)   0x02            MPEG-2                                  0                       0                       0               0
00546.M2TS      4352 (0x1100)   0x81            AC3             eng (English)           0                       0                       0               0
00546.M2TS      4608 (0x1200)   0x90            PGS             eng (English)           0                       0                       0               0


********************
PLAYLIST: 00247.MPLS
********************

Код:

Total   Video
Title                                                           Codec   Length  Movie Size      Disc Size       Bitrate Bitrate Main Audio Track                          Secondary Audio Track
-----                                                           ------  ------- --------------  --------------  ------- ------- ------------------                        ---------------------
00247.MPLS                                                      MPEG-2  0:04:14 0               48 422 164 125  0.00    0.00    DD AC3 2.0 192Kbps


Код:

DISC INFO:

Disc Title:     Julie and Julia 2009 1080p BluRay CEE AVC DTSHD MA-EiMi
Disc Size:      48 422 164 125 bytes
Protection:     AACS
BD-Java:        Yes
BDInfo:         0.5.1

PLAYLIST REPORT:

Name:                   00247.MPLS
Size:                   0 bytes
Length:                 0:04:14 (h:m:s)
Total Bitrate:          0.00 Mbps
Description:

VIDEO:

Codec                   Bitrate             Description
-----                   -------             -----------
MPEG-2 Video            0 kbps              1080i / 29.970 fps / 16:9

AUDIO:

Codec                           Language        Bitrate         Description
-----                           --------        -------         -----------
Dolby Digital Audio             English         192 kbps        2.0 / 48 kHz / 192 kbps

SUBTITLES:

Codec                           Language        Bitrate         Description
-----                           --------        -------         -----------
Presentation Graphics           English         0.000 kbps

FILES:

Name            Time In         Length          Size            Total Bitrate
----            -------         ------          ----            -------------
00544.M2TS      0:00:00.000     0:04:14.254     0               0

CHAPTERS:

Number          Time In         Length          Avg Video Rate  Max 1-Sec Rate  Max 1-Sec Time  Max 5-Sec Rate  Max 5-Sec Time  Max 10Sec Rate  Max 10Sec Time  Avg Frame Size  Max Frame Size  Max Frame Time
------          -------         ------          --------------  --------------  --------------  --------------  --------------  --------------  --------------  --------------  --------------  --------------
1               0:00:00.000     0:04:14.254     0 kbps          0 kbps          00:00:00.000    0 kbps          00:00:00.000    0 kbps          00:00:00.000    0 bytes         0 bytes         00:00:00.000

STREAM DIAGNOSTICS:

File            PID             Type            Codec           Language                Seconds                 Bitrate                 Bytes           Packets
----            ---             ----            -----           --------                --------------          --------------          -------------   -----
00544.M2TS      4113 (0x1011)   0x02            MPEG-2                                  0                       0                       0               0
00544.M2TS      4352 (0x1100)   0x81            AC3             eng (English)           0                       0                       0               0
00544.M2TS      4608 (0x1200)   0x90            PGS             eng (English)           0                       0                       0               0


********************
PLAYLIST: 00248.MPLS
********************

Код:

Total   Video
Title                                                           Codec   Length  Movie Size      Disc Size       Bitrate Bitrate Main Audio Track                          Secondary Audio Track
-----                                                           ------  ------- --------------  --------------  ------- ------- ------------------                        ---------------------
00248.MPLS                                                      MPEG-2  0:02:38 0               48 422 164 125  0.00    0.00    DD AC3 2.0 192Kbps


Код:

DISC INFO:

Disc Title:     Julie and Julia 2009 1080p BluRay CEE AVC DTSHD MA-EiMi
Disc Size:      48 422 164 125 bytes
Protection:     AACS
BD-Java:        Yes
BDInfo:         0.5.1

PLAYLIST REPORT:

Name:                   00248.MPLS
Size:                   0 bytes
Length:                 0:02:38 (h:m:s)
Total Bitrate:          0.00 Mbps
Description:

VIDEO:

Codec                   Bitrate             Description
-----                   -------             -----------
MPEG-2 Video            0 kbps              1080i / 29.970 fps / 16:9

AUDIO:

Codec                           Language        Bitrate         Description
-----                           --------        -------         -----------
Dolby Digital Audio             English         192 kbps        2.0 / 48 kHz / 192 kbps

SUBTITLES:

Codec                           Language        Bitrate         Description
-----                           --------        -------         -----------
Presentation Graphics           English         0.000 kbps

FILES:

Name            Time In         Length          Size            Total Bitrate
----            -------         ------          ----            -------------
00545.M2TS      0:00:00.000     0:02:38.157     0               0

CHAPTERS:

Number          Time In         Length          Avg Video Rate  Max 1-Sec Rate  Max 1-Sec Time  Max 5-Sec Rate  Max 5-Sec Time  Max 10Sec Rate  Max 10Sec Time  Avg Frame Size  Max Frame Size  Max Frame Time
------          -------         ------          --------------  --------------  --------------  --------------  --------------  --------------  --------------  --------------  --------------  --------------
1               0:00:00.000     0:02:38.157     0 kbps          0 kbps          00:00:00.000    0 kbps          00:00:00.000    0 kbps          00:00:00.000    0 bytes         0 bytes         00:00:00.000

STREAM DIAGNOSTICS:

File            PID             Type            Codec           Language                Seconds                 Bitrate                 Bytes           Packets
----            ---             ----            -----           --------                --------------          --------------          -------------   -----
00545.M2TS      4113 (0x1011)   0x02            MPEG-2                                  0                       0                       0               0
00545.M2TS      4352 (0x1100)   0x81            AC3             eng (English)           0                       0                       0               0
00545.M2TS      4608 (0x1200)   0x90            PGS             eng (English)           0                       0                       0               0


********************
PLAYLIST: 01018.MPLS
********************

Код:

Total   Video
Title                                                           Codec   Length  Movie Size      Disc Size       Bitrate Bitrate Main Audio Track                          Secondary Audio Track
-----                                                           ------  ------- --------------  --------------  ------- ------- ------------------                        ---------------------
01018.MPLS                                                      MPEG-2  0:02:13 0               48 422 164 125  0.00    0.00    DD AC3 5.1 640Kbps


Код:

DISC INFO:

Disc Title:     Julie and Julia 2009 1080p BluRay CEE AVC DTSHD MA-EiMi
Disc Size:      48 422 164 125 bytes
Protection:     AACS
BD-Java:        Yes
BDInfo:         0.5.1

PLAYLIST REPORT:

Name:                   01018.MPLS
Size:                   0 bytes
Length:                 0:02:13 (h:m:s)
Total Bitrate:          0.00 Mbps
Description:

VIDEO:

Codec                   Bitrate             Description
-----                   -------             -----------
MPEG-2 Video            0 kbps              1080p / 23.976 fps / 16:9

AUDIO:

Codec                           Language        Bitrate         Description
-----                           --------        -------         -----------
Dolby Digital Audio             English         640 kbps        5.1 / 48 kHz / 640 kbps

FILES:

Name            Time In         Length          Size            Total Bitrate
----            -------         ------          ----            -------------
05034.M2TS      0:00:00.000     0:02:13.133     0               0

CHAPTERS:

Number          Time In         Length          Avg Video Rate  Max 1-Sec Rate  Max 1-Sec Time  Max 5-Sec Rate  Max 5-Sec Time  Max 10Sec Rate  Max 10Sec Time  Avg Frame Size  Max Frame Size  Max Frame Time
------          -------         ------          --------------  --------------  --------------  --------------  --------------  --------------  --------------  --------------  --------------  --------------
1               0:00:00.000     0:02:13.133     0 kbps          0 kbps          00:00:00.000    0 kbps          00:00:00.000    0 kbps          00:00:00.000    0 bytes         0 bytes         00:00:00.000

STREAM DIAGNOSTICS:

File            PID             Type            Codec           Language                Seconds                 Bitrate                 Bytes           Packets
----            ---             ----            -----           --------                --------------          --------------          -------------   -----
05034.M2TS      4113 (0x1011)   0x02            MPEG-2                                  0                       0                       0               0
05034.M2TS      4352 (0x1100)   0x81            AC3             eng (English)           0                       0                       0               0


********************
PLAYLIST: 01023.MPLS
********************

Код:

Total   Video
Title                                                           Codec   Length  Movie Size      Disc Size       Bitrate Bitrate Main Audio Track                          Secondary Audio Track
-----                                                           ------  ------- --------------  --------------  ------- ------- ------------------                        ---------------------
01023.MPLS                                                      MPEG-2  0:02:08 0               48 422 164 125  0.00    0.00    DD AC3 5.1 640Kbps


Код:

DISC INFO:

Disc Title:     Julie and Julia 2009 1080p BluRay CEE AVC DTSHD MA-EiMi
Disc Size:      48 422 164 125 bytes
Protection:     AACS
BD-Java:        Yes
BDInfo:         0.5.1

PLAYLIST REPORT:

Name:                   01023.MPLS
Size:                   0 bytes
Length:                 0:02:08 (h:m:s)
Total Bitrate:          0.00 Mbps
Description:

VIDEO:

Codec                   Bitrate             Description
-----                   -------             -----------
MPEG-2 Video            0 kbps              1080p / 23.976 fps / 16:9

AUDIO:

Codec                           Language        Bitrate         Description
-----                           --------        -------         -----------
Dolby Digital Audio             English         640 kbps        5.1 / 48 kHz / 640 kbps

FILES:

Name            Time In         Length          Size            Total Bitrate
----            -------         ------          ----            -------------
05033.M2TS      0:00:00.000     0:02:08.753     0               0

CHAPTERS:

Number          Time In         Length          Avg Video Rate  Max 1-Sec Rate  Max 1-Sec Time  Max 5-Sec Rate  Max 5-Sec Time  Max 10Sec Rate  Max 10Sec Time  Avg Frame Size  Max Frame Size  Max Frame Time
------          -------         ------          --------------  --------------  --------------  --------------  --------------  --------------  --------------  --------------  --------------  --------------
1               0:00:00.000     0:02:08.753     0 kbps          0 kbps          00:00:00.000    0 kbps          00:00:00.000    0 kbps          00:00:00.000    0 bytes         0 bytes         00:00:00.000

STREAM DIAGNOSTICS:

File            PID             Type            Codec           Language                Seconds                 Bitrate                 Bytes           Packets
----            ---             ----            -----           --------                --------------          --------------          -------------   -----
05033.M2TS      4113 (0x1011)   0x02            MPEG-2                                  0                       0                       0               0
05033.M2TS      4352 (0x1100)   0x81            AC3             eng (English)           0                       0                       0               0


********************
PLAYLIST: 01022.MPLS
********************

Код:

Total   Video
Title                                                           Codec   Length  Movie Size      Disc Size       Bitrate Bitrate Main Audio Track                          Secondary Audio Track
-----                                                           ------  ------- --------------  --------------  ------- ------- ------------------                        ---------------------
01022.MPLS                                                      MPEG-2  0:02:08 0               48 422 164 125  0.00    0.00    DD AC3 5.1 640Kbps


Код:

DISC INFO:

Disc Title:     Julie and Julia 2009 1080p BluRay CEE AVC DTSHD MA-EiMi
Disc Size:      48 422 164 125 bytes
Protection:     AACS
BD-Java:        Yes
BDInfo:         0.5.1

PLAYLIST REPORT:

Name:                   01022.MPLS
Size:                   0 bytes
Length:                 0:02:08 (h:m:s)
Total Bitrate:          0.00 Mbps
Description:

VIDEO:

Codec                   Bitrate             Description
-----                   -------             -----------
MPEG-2 Video            0 kbps              1080p / 23.976 fps / 16:9

AUDIO:

Codec                           Language        Bitrate         Description
-----                           --------        -------         -----------
Dolby Digital Audio             English         640 kbps        5.1 / 48 kHz / 640 kbps

FILES:

Name            Time In         Length          Size            Total Bitrate
----            -------         ------          ----            -------------
05032.M2TS      0:00:00.000     0:02:08.169     0               0

CHAPTERS:

Number          Time In         Length          Avg Video Rate  Max 1-Sec Rate  Max 1-Sec Time  Max 5-Sec Rate  Max 5-Sec Time  Max 10Sec Rate  Max 10Sec Time  Avg Frame Size  Max Frame Size  Max Frame Time
------          -------         ------          --------------  --------------  --------------  --------------  --------------  --------------  --------------  --------------  --------------  --------------
1               0:00:00.000     0:02:08.169     0 kbps          0 kbps          00:00:00.000    0 kbps          00:00:00.000    0 kbps          00:00:00.000    0 bytes         0 bytes         00:00:00.000

STREAM DIAGNOSTICS:

File            PID             Type            Codec           Language                Seconds                 Bitrate                 Bytes           Packets
----            ---             ----            -----           --------                --------------          --------------          -------------   -----
05032.M2TS      4113 (0x1011)   0x02            MPEG-2                                  0                       0                       0               0
05032.M2TS      4352 (0x1100)   0x81            AC3             eng (English)           0                       0                       0               0


********************
PLAYLIST: 01019.MPLS
********************

Код:

Total   Video
Title                                                           Codec   Length  Movie Size      Disc Size       Bitrate Bitrate Main Audio Track                          Secondary Audio Track
-----                                                           ------  ------- --------------  --------------  ------- ------- ------------------                        ---------------------
01019.MPLS                                                      MPEG-2  0:02:01 0               48 422 164 125  0.00    0.00    DD AC3 5.1 640Kbps


Код:

DISC INFO:

Disc Title:     Julie and Julia 2009 1080p BluRay CEE AVC DTSHD MA-EiMi
Disc Size:      48 422 164 125 bytes
Protection:     AACS
BD-Java:        Yes
BDInfo:         0.5.1

PLAYLIST REPORT:

Name:                   01019.MPLS
Size:                   0 bytes
Length:                 0:02:01 (h:m:s)
Total Bitrate:          0.00 Mbps
Description:

VIDEO:

Codec                   Bitrate             Description
-----                   -------             -----------
MPEG-2 Video            0 kbps              1080p / 23.976 fps / 16:9

AUDIO:

Codec                           Language        Bitrate         Description
-----                           --------        -------         -----------
Dolby Digital Audio             English         640 kbps        5.1 / 48 kHz / 640 kbps

FILES:

Name            Time In         Length          Size            Total Bitrate
----            -------         ------          ----            -------------
05029.M2TS      0:00:00.000     0:02:01.329     0               0

CHAPTERS:

Number          Time In         Length          Avg Video Rate  Max 1-Sec Rate  Max 1-Sec Time  Max 5-Sec Rate  Max 5-Sec Time  Max 10Sec Rate  Max 10Sec Time  Avg Frame Size  Max Frame Size  Max Frame Time
------          -------         ------          --------------  --------------  --------------  --------------  --------------  --------------  --------------  --------------  --------------  --------------
1               0:00:00.000     0:02:01.329     0 kbps          0 kbps          00:00:00.000    0 kbps          00:00:00.000    0 kbps          00:00:00.000    0 bytes         0 bytes         00:00:00.000

STREAM DIAGNOSTICS:

File            PID             Type            Codec           Language                Seconds                 Bitrate                 Bytes           Packets
----            ---             ----            -----           --------                --------------          --------------          -------------   -----
05029.M2TS      4113 (0x1011)   0x02            MPEG-2                                  0                       0                       0               0
05029.M2TS      4352 (0x1100)   0x81            AC3             eng (English)           0                       0                       0               0


********************
PLAYLIST: 01021.MPLS
********************

Код:

Total   Video
Title                                                           Codec   Length  Movie Size      Disc Size       Bitrate Bitrate Main Audio Track                          Secondary Audio Track
-----                                                           ------  ------- --------------  --------------  ------- ------- ------------------                        ---------------------
01021.MPLS                                                      MPEG-2  0:01:47 0               48 422 164 125  0.00    0.00    DD AC3 5.1 640Kbps


Код:

DISC INFO:

Disc Title:     Julie and Julia 2009 1080p BluRay CEE AVC DTSHD MA-EiMi
Disc Size:      48 422 164 125 bytes
Protection:     AACS
BD-Java:        Yes
BDInfo:         0.5.1

PLAYLIST REPORT:

Name:                   01021.MPLS
Size:                   0 bytes
Length:                 0:01:47 (h:m:s)
Total Bitrate:          0.00 Mbps
Description:

VIDEO:

Codec                   Bitrate             Description
-----                   -------             -----------
MPEG-2 Video            0 kbps              1080p / 23.976 fps / 16:9

AUDIO:

Codec                           Language        Bitrate         Description
-----                           --------        -------         -----------
Dolby Digital Audio             English         640 kbps        5.1 / 48 kHz / 640 kbps

FILES:

Name            Time In         Length          Size            Total Bitrate
----            -------         ------          ----            -------------
05031.M2TS      0:00:00.000     0:01:47.232     0               0

CHAPTERS:

Number          Time In         Length          Avg Video Rate  Max 1-Sec Rate  Max 1-Sec Time  Max 5-Sec Rate  Max 5-Sec Time  Max 10Sec Rate  Max 10Sec Time  Avg Frame Size  Max Frame Size  Max Frame Time
------          -------         ------          --------------  --------------  --------------  --------------  --------------  --------------  --------------  --------------  --------------  --------------
1               0:00:00.000     0:01:47.232     0 kbps          0 kbps          00:00:00.000    0 kbps          00:00:00.000    0 kbps          00:00:00.000    0 bytes         0 bytes         00:00:00.000

STREAM DIAGNOSTICS:

File            PID             Type            Codec           Language                Seconds                 Bitrate                 Bytes           Packets
----            ---             ----            -----           --------                --------------          --------------          -------------   -----
05031.M2TS      4113 (0x1011)   0x02            MPEG-2                                  0                       0                       0               0
05031.M2TS      4352 (0x1100)   0x81            AC3             eng (English)           0                       0                       0               0


********************
PLAYLIST: 01020.MPLS
********************

Код:

Total   Video
Title                                                           Codec   Length  Movie Size      Disc Size       Bitrate Bitrate Main Audio Track                          Secondary Audio Track
-----                                                           ------  ------- --------------  --------------  ------- ------- ------------------                        ---------------------
01020.MPLS                                                      MPEG-2  0:01:11 0               48 422 164 125  0.00    0.00    DD AC3 5.1 640Kbps


Код:

DISC INFO:

Disc Title:     Julie and Julia 2009 1080p BluRay CEE AVC DTSHD MA-EiMi
Disc Size:      48 422 164 125 bytes
Protection:     AACS
BD-Java:        Yes
BDInfo:         0.5.1

PLAYLIST REPORT:

Name:                   01020.MPLS
Size:                   0 bytes
Length:                 0:01:11 (h:m:s)
Total Bitrate:          0.00 Mbps
Description:

VIDEO:

Codec                   Bitrate             Description
-----                   -------             -----------
MPEG-2 Video            0 kbps              1080p / 23.976 fps / 16:9

AUDIO:

Codec                           Language        Bitrate         Description
-----                           --------        -------         -----------
Dolby Digital Audio             English         640 kbps        5.1 / 48 kHz / 640 kbps

FILES:

Name            Time In         Length          Size            Total Bitrate
----            -------         ------          ----            -------------
05030.M2TS      0:00:00.000     0:01:11.446     0               0

CHAPTERS:

Number          Time In         Length          Avg Video Rate  Max 1-Sec Rate  Max 1-Sec Time  Max 5-Sec Rate  Max 5-Sec Time  Max 10Sec Rate  Max 10Sec Time  Avg Frame Size  Max Frame Size  Max Frame Time
------          -------         ------          --------------  --------------  --------------  --------------  --------------  --------------  --------------  --------------  --------------  --------------
1               0:00:00.000     0:01:11.446     0 kbps          0 kbps          00:00:00.000    0 kbps          00:00:00.000    0 kbps          00:00:00.000    0 bytes         0 bytes         00:00:00.000

STREAM DIAGNOSTICS:

File            PID             Type            Codec           Language                Seconds                 Bitrate                 Bytes           Packets
----            ---             ----            -----           --------                --------------          --------------          -------------   -----
05030.M2TS      4113 (0x1011)   0x02            MPEG-2                                  0                       0                       0               0
05030.M2TS      4352 (0x1100)   0x81            AC3             eng (English)           0                       0                       0               0


********************
PLAYLIST: 01014.MPLS
********************

Код:

Total   Video
Title                                                           Codec   Length  Movie Size      Disc Size       Bitrate Bitrate Main Audio Track                          Secondary Audio Track
-----                                                           ------  ------- --------------  --------------  ------- ------- ------------------                        ---------------------
01014.MPLS                                                      MPEG-2  0:01:06 0               48 422 164 125  0.00    0.00    DD AC3 2.0 224Kbps


Код:

DISC INFO:

Disc Title:     Julie and Julia 2009 1080p BluRay CEE AVC DTSHD MA-EiMi
Disc Size:      48 422 164 125 bytes
Protection:     AACS
BD-Java:        Yes
BDInfo:         0.5.1

PLAYLIST REPORT:

Name:                   01014.MPLS
Size:                   0 bytes
Length:                 0:01:06 (h:m:s)
Total Bitrate:          0.00 Mbps
Description:

VIDEO:

Codec                   Bitrate             Description
-----                   -------             -----------
MPEG-2 Video            0 kbps              1080p / 23.976 fps / 16:9

AUDIO:

Codec                           Language        Bitrate         Description
-----                           --------        -------         -----------
Dolby Digital Audio             English         224 kbps        2.0 / 48 kHz / 224 kbps

FILES:

Name            Time In         Length          Size            Total Bitrate
----            -------         ------          ----            -------------
05015.M2TS      0:00:00.000     0:01:06.691     0               0

CHAPTERS:

Number          Time In         Length          Avg Video Rate  Max 1-Sec Rate  Max 1-Sec Time  Max 5-Sec Rate  Max 5-Sec Time  Max 10Sec Rate  Max 10Sec Time  Avg Frame Size  Max Frame Size  Max Frame Time
------          -------         ------          --------------  --------------  --------------  --------------  --------------  --------------  --------------  --------------  --------------  --------------
1               0:00:00.000     0:01:06.691     0 kbps          0 kbps          00:00:00.000    0 kbps          00:00:00.000    0 kbps          00:00:00.000    0 bytes         0 bytes         00:00:00.000

STREAM DIAGNOSTICS:

File            PID             Type            Codec           Language                Seconds                 Bitrate                 Bytes           Packets
----            ---             ----            -----           --------                --------------          --------------          -------------   -----
05015.M2TS      4113 (0x1011)   0x02            MPEG-2                                  0                       0                       0               0
05015.M2TS      4352 (0x1100)   0x81            AC3             eng (English)           0                       0                       0               0


********************
PLAYLIST: 01016.MPLS
********************

Код:

Total   Video
Title                                                           Codec   Length  Movie Size      Disc Size       Bitrate Bitrate Main Audio Track                          Secondary Audio Track
-----                                                           ------  ------- --------------  --------------  ------- ------- ------------------                        ---------------------
01016.MPLS                                                      MPEG-2  0:01:06 0               48 422 164 125  0.00    0.00    DD AC3 2.0 224Kbps


Код:

DISC INFO:

Disc Title:     Julie and Julia 2009 1080p BluRay CEE AVC DTSHD MA-EiMi
Disc Size:      48 422 164 125 bytes
Protection:     AACS
BD-Java:        Yes
BDInfo:         0.5.1

PLAYLIST REPORT:

Name:                   01016.MPLS
Size:                   0 bytes
Length:                 0:01:06 (h:m:s)
Total Bitrate:          0.00 Mbps
Description:

VIDEO:

Codec                   Bitrate             Description
-----                   -------             -----------
MPEG-2 Video            0 kbps              1080p / 23.976 fps / 16:9

AUDIO:

Codec                           Language        Bitrate         Description
-----                           --------        -------         -----------
Dolby Digital Audio             English         224 kbps        2.0 / 48 kHz / 224 kbps

FILES:

Name            Time In         Length          Size            Total Bitrate
----            -------         ------          ----            -------------
05017.M2TS      0:00:00.000     0:01:06.691     0               0

CHAPTERS:

Number          Time In         Length          Avg Video Rate  Max 1-Sec Rate  Max 1-Sec Time  Max 5-Sec Rate  Max 5-Sec Time  Max 10Sec Rate  Max 10Sec Time  Avg Frame Size  Max Frame Size  Max Frame Time
------          -------         ------          --------------  --------------  --------------  --------------  --------------  --------------  --------------  --------------  --------------  --------------
1               0:00:00.000     0:01:06.691     0 kbps          0 kbps          00:00:00.000    0 kbps          00:00:00.000    0 kbps          00:00:00.000    0 bytes         0 bytes         00:00:00.000

STREAM DIAGNOSTICS:

File            PID             Type            Codec           Language                Seconds                 Bitrate                 Bytes           Packets
----            ---             ----            -----           --------                --------------          --------------          -------------   -----
05017.M2TS      4113 (0x1011)   0x02            MPEG-2                                  0                       0                       0               0
05017.M2TS      4352 (0x1100)   0x81            AC3             eng (English)           0                       0                       0               0


********************
PLAYLIST: 00252.MPLS
********************

Код:

Total   Video
Title                                                           Codec   Length  Movie Size      Disc Size       Bitrate Bitrate Main Audio Track                          Secondary Audio Track
-----                                                           ------  ------- --------------  --------------  ------- ------- ------------------                        ---------------------
00252.MPLS                                                      AVC     0:01:02 0               48 422 164 125  0.00    0.00    DD AC3 2.0 192Kbps


Код:

DISC INFO:

Disc Title:     Julie and Julia 2009 1080p BluRay CEE AVC DTSHD MA-EiMi
Disc Size:      48 422 164 125 bytes
Protection:     AACS
BD-Java:        Yes
BDInfo:         0.5.1

PLAYLIST REPORT:

Name:                   00252.MPLS
Size:                   0 bytes
Length:                 0:01:02 (h:m:s)
Total Bitrate:          0.00 Mbps
Description:

VIDEO:

Codec                   Bitrate             Description
-----                   -------             -----------
MPEG-4 AVC Video        0 kbps              1080p / 23.976 fps / 16:9 / High Profile 4.1

AUDIO:

Codec                           Language        Bitrate         Description
-----                           --------        -------         -----------
Dolby Digital Audio             English         192 kbps        2.0 / 48 kHz / 192 kbps

FILES:

Name            Time In         Length          Size            Total Bitrate
----            -------         ------          ----            -------------
00542.M2TS      0:00:00.000     0:01:02.395     0               0

CHAPTERS:

Number          Time In         Length          Avg Video Rate  Max 1-Sec Rate  Max 1-Sec Time  Max 5-Sec Rate  Max 5-Sec Time  Max 10Sec Rate  Max 10Sec Time  Avg Frame Size  Max Frame Size  Max Frame Time
------          -------         ------          --------------  --------------  --------------  --------------  --------------  --------------  --------------  --------------  --------------  --------------
1               0:00:00.000     0:01:02.395     0 kbps          0 kbps          00:00:00.000    0 kbps          00:00:00.000    0 kbps          00:00:00.000    0 bytes         0 bytes         00:00:00.000

STREAM DIAGNOSTICS:

File            PID             Type            Codec           Language                Seconds                 Bitrate                 Bytes           Packets
----            ---             ----            -----           --------                --------------          --------------          -------------   -----
00542.M2TS      4113 (0x1011)   0x1B            AVC                                     0                       0                       0               0
00542.M2TS      4352 (0x1100)   0x81            AC3             eng (English)           0                       0                       0               0


********************
PLAYLIST: 00102.MPLS
********************

Код:

Total   Video
Title                                                           Codec   Length  Movie Size      Disc Size       Bitrate Bitrate Main Audio Track                          Secondary Audio Track
-----                                                           ------  ------- --------------  --------------  ------- ------- ------------------                        ---------------------
00102.MPLS                                                      MPEG-2  0:01:00 0               48 422 164 125  0.00    0.00


Код:

DISC INFO:

Disc Title:     Julie and Julia 2009 1080p BluRay CEE AVC DTSHD MA-EiMi
Disc Size:      48 422 164 125 bytes
Protection:     AACS
BD-Java:        Yes
BDInfo:         0.5.1

PLAYLIST REPORT:

Name:                   00102.MPLS
Size:                   0 bytes
Length:                 0:01:00 (h:m:s)
Total Bitrate:          0.00 Mbps
Description:

VIDEO:

Codec                   Bitrate             Description
-----                   -------             -----------
MPEG-2 Video            0 kbps              1080p / 23.976 fps / 16:9

FILES:

Name            Time In         Length          Size            Total Bitrate
----            -------         ------          ----            -------------
00081.M2TS      0:00:00.000     0:01:00.060     0               0

CHAPTERS:

Number          Time In         Length          Avg Video Rate  Max 1-Sec Rate  Max 1-Sec Time  Max 5-Sec Rate  Max 5-Sec Time  Max 10Sec Rate  Max 10Sec Time  Avg Frame Size  Max Frame Size  Max Frame Time
------          -------         ------          --------------  --------------  --------------  --------------  --------------  --------------  --------------  --------------  --------------  --------------
1               0:00:00.000     0:00:15.015     0 kbps          0 kbps          00:00:00.000    0 kbps          00:00:00.000    0 kbps          00:00:00.000    0 bytes         0 bytes         00:00:00.000
2               0:00:15.015     0:00:15.015     0 kbps          0 kbps          00:00:00.000    0 kbps          00:00:00.000    0 kbps          00:00:00.000    0 bytes         0 bytes         00:00:00.000
3               0:00:30.030     0:00:15.015     0 kbps          0 kbps          00:00:00.000    0 kbps          00:00:00.000    0 kbps          00:00:00.000    0 bytes         0 bytes         00:00:00.000
4               0:00:45.045     0:00:15.015     0 kbps          0 kbps          00:00:00.000    0 kbps          00:00:00.000    0 kbps          00:00:00.000    0 bytes         0 bytes         00:00:00.000

STREAM DIAGNOSTICS:

File            PID             Type            Codec           Language                Seconds                 Bitrate                 Bytes           Packets
----            ---             ----            -----           --------                --------------          --------------          -------------   -----
00081.M2TS      4113 (0x1011)   0x02            MPEG-2                                  0                       0                       0               0


********************
PLAYLIST: 00100.MPLS
********************

Код:

Total   Video
Title                                                           Codec   Length  Movie Size      Disc Size       Bitrate Bitrate Main Audio Track                          Secondary Audio Track
-----                                                           ------  ------- --------------  --------------  ------- ------- ------------------                        ---------------------
00100.MPLS                                                      MPEG-2  0:00:14 25 165 824      48 422 164 125  13.95   12.61   DD AC3 5.1 640Kbps


Код:

DISC INFO:

Disc Title:     Julie and Julia 2009 1080p BluRay CEE AVC DTSHD MA-EiMi
Disc Size:      48 422 164 125 bytes
Protection:     AACS
BD-Java:        Yes
BDInfo:         0.5.1

PLAYLIST REPORT:

Name:                   00100.MPLS
Size:                   25 165 824 bytes
Length:                 0:00:14 (h:m:s)
Total Bitrate:          13.95 Mbps
Description:

VIDEO:

Codec                   Bitrate             Description
-----                   -------             -----------
MPEG-2 Video            12605 kbps          1080p / 23.976 fps / 16:9

AUDIO:

Codec                           Language        Bitrate         Description
-----                           --------        -------         -----------
Dolby Digital Audio             English         640 kbps        5.1 / 48 kHz / 640 kbps

FILES:

Name            Time In         Length          Size            Total Bitrate
----            -------         ------          ----            -------------
00000.M2TS      0:00:00.000     0:00:14.431     25 165 824      13 951

CHAPTERS:

Number          Time In         Length          Avg Video Rate  Max 1-Sec Rate  Max 1-Sec Time  Max 5-Sec Rate  Max 5-Sec Time  Max 10Sec Rate  Max 10Sec Time  Avg Frame Size  Max Frame Size  Max Frame Time
------          -------         ------          --------------  --------------  --------------  --------------  --------------  --------------  --------------  --------------  --------------  --------------
1               0:00:00.000     0:00:14.431     12 605 kbps     32 865 kbps     00:00:03.503    26 975 kbps     00:00:01.501    17 101 kbps     00:00:01.209    65 718 bytes    490 632 bytes   00:00:03.670

STREAM DIAGNOSTICS:

File            PID             Type            Codec           Language                Seconds                 Bitrate                 Bytes           Packets
----            ---             ----            -----           --------                --------------          --------------          -------------   -----
00000.M2TS      4113 (0x1011)   0x02            MPEG-2                                  14.264                  12 753                  22 738 431      123 785
00000.M2TS      4352 (0x1100)   0x81            AC3             eng (English)           14.264                  648                     1 154 560       6 765


********************
PLAYLIST: 00197.MPLS
********************

Код:

Total   Video
Title                                                           Codec   Length  Movie Size      Disc Size       Bitrate Bitrate Main Audio Track                          Secondary Audio Track
-----                                                           ------  ------- --------------  --------------  ------- ------- ------------------                        ---------------------
00197.MPLS                                                      MPEG-2  0:00:14 25 165 824      48 422 164 125  13.95   12.61   DD AC3 5.1 640Kbps


Код:

DISC INFO:

Disc Title:     Julie and Julia 2009 1080p BluRay CEE AVC DTSHD MA-EiMi
Disc Size:      48 422 164 125 bytes
Protection:     AACS
BD-Java:        Yes
BDInfo:         0.5.1

PLAYLIST REPORT:

Name:                   00197.MPLS
Size:                   25 165 824 bytes
Length:                 0:00:14 (h:m:s)
Total Bitrate:          13.95 Mbps
Description:

VIDEO:

Codec                   Bitrate             Description
-----                   -------             -----------
MPEG-2 Video            12605 kbps          1080p / 23.976 fps / 16:9

AUDIO:

Codec                           Language        Bitrate         Description
-----                           --------        -------         -----------
Dolby Digital Audio             English         640 kbps        5.1 / 48 kHz / 640 kbps

FILES:

Name            Time In         Length          Size            Total Bitrate
----            -------         ------          ----            -------------
00000.M2TS      0:00:00.000     0:00:14.431     25 165 824      13 951

CHAPTERS:

Number          Time In         Length          Avg Video Rate  Max 1-Sec Rate  Max 1-Sec Time  Max 5-Sec Rate  Max 5-Sec Time  Max 10Sec Rate  Max 10Sec Time  Avg Frame Size  Max Frame Size  Max Frame Time
------          -------         ------          --------------  --------------  --------------  --------------  --------------  --------------  --------------  --------------  --------------  --------------
1               0:00:00.000     0:00:14.431     12 605 kbps     32 865 kbps     00:00:03.503    26 975 kbps     00:00:01.501    17 101 kbps     00:00:01.209    65 718 bytes    490 632 bytes   00:00:03.670

STREAM DIAGNOSTICS:

File            PID             Type            Codec           Language                Seconds                 Bitrate                 Bytes           Packets
----            ---             ----            -----           --------                --------------          --------------          -------------   -----
00000.M2TS      4113 (0x1011)   0x02            MPEG-2                                  14.264                  12 753                  22 738 431      123 785
00000.M2TS      4352 (0x1100)   0x81            AC3             eng (English)           14.264                  648                     1 154 560       6 765
Featurettes
Cooking Lessons
movieIQ
BD-Live
Релиз от

Этот торрент недоступен для скачивания без регистрации, однако доступен по публичной magnet-ссылке (источники с публичных трекеров). Перед использованием ссылки прочтите, пожалуйста Пользовательское соглашение, а также как можно дольше оставайтесь на раздаче! Для того, чтобы скачать сам торрент-файл (который видит больше источников), а также для того, чтобы поблагодарить релизера, вам необходимо зарегистрироваться. Если регистрироваться лень - вы можете также попробовать скачать релиз по нашим партнерским ссылкам ниже. Кроме того, зарегистрированным пользователям не показывается всплывающая реклама при скачивании.

[underverse.su].t39489.torrent
Трекер: Зарегистрирован   [ 30.04.2014 10:12 ]  

Статус: проверено (by Паукан at 30.04.2014 13:51)
Поблагодарили: пока никто не поблагодарил...
Тип торрента: публичный - доступные источники с открытых трекеров: 
Размер: 45,1 GB (занимает 10,3 DVDR, для записи нужно 11 болванок DVDR/RW)
 
 
Похожие темы
Форум Тема Автор Торрент Отв. Посл. сооб.
Архив (художественные фильмы) Джули и Джулия: Готовим счастье по рецепту / Julie & Julia (2009) DVDRip (Нора Эфрон) [2009 г., комедия, мелодрама, драма, биография, DVDRip] bokalchik
0 | 0

1 | 958

3

16.06.2011 08:08

Архив (HQ Underverse) Джули и Джулия: Готовим счастье по рецепту / Julie & Julia (Нора Эфрон) [2009 г., комедия, мелодрама, биография, BDRip] GUree
0 | 0

2 | 1643

2

05.11.2011 14:45


Яндекс.Метрика powered by Sphinx


В Н И М А Н И Е
Сайт не распространяет и не хранит электронные версии произведений, а лишь бесплатно и без коммерческой выгоды (не требуя взамен платы,
SMS и т.д.) предоставляет доступ к создаваемому пользователями каталогу ссылок на торрент-файлы, которые содержат только списки хеш-сумм.
Убедительная просьба с жалобами обращаться напрямую к пользователю, разместившему торрент файл.

Вверх