Loading...
Error

Гравитация / Gravity (Альфонсо Куарон / Alfonso Cuaron) [2013, США, Великобритания, фантастика, триллер, драма, BDRemux 1080p] Dub + Ukr + VO (Есарев) + Sub Rus, Eng + Original Eng

Статистика раздачи
Размер:  17,4 GB   |    Зарегистрирован:  4 года 2 месяца   |    Скачан:  22 раза
Сидов:  1  |  0 KB/s  ]   Личеров:  0  |  0 KB/s  ]

* - сиды/пиры с внешних источников

   
 
Автор Сообщение

uzi2009 Пол:Муж

12-Мар-2014 12:57

Гравитация
Gravity
«Не отпускай»

Страна: США, Великобритания
Жанр: фантастика, триллер, драма
Год выпуска: 2013
Продолжительность: 01:30:58
Перевод 1: Профессиональный (полное дублирование),
Перевод 2: Одноголосый закадровый (Д. Есарев)
Субтитры: русские (2х Форсированные, Полные), английские (Полные)
Оригинальная аудиодорожка: английский

Режиссер: Альфонсо Куарон / Alfonso Cuarуn

В ролях:
Сандра Буллок, Джордж Клуни, Эд Харрис, Орто Игнатиуссен, Фалдут Шарма, Эми Уоррен, Башер Саваж, Дженис Ахерн
Дублёры:Мария Фортунатова (Ryan Stone), Дмитрий Матвеев (Matt Kowalski), Сергей Чихачев (Mission Control), Диомид Виноградов (Shariff)
Описание: Доктор Райан Стоун, блестящий специалист в области медицинского инжиниринга, отправляется в свою первую космическую миссию под командованием ветерана астронавтики Мэтта Ковальски, для которого этот полет - последний перед отставкой. Но во время, казалось бы, рутинной работы за бортом случается катастрофа.
Шаттл уничтожен, а Стоун и Ковальски остаются совершенно одни; они находятся в связке друг с другом, и все, что они могут, - это двигаться по орбите в абсолютно черном пространстве без всякой связи с Землей и какой-либо надежды на спасение.
MPAA: PG-13 - Детям до 13 лет просмотр не желателен
Доп. информация:
Дорожка №2 доступна благодаря: Pr0peLLer, ARTYq, будулайроманов, ZeDOK, s.scheyko. Работа со звуком - Переводман.
При сведении перевода, полностью сохранена амплитуда и пространственная панорама диалогов.

В раздаче 2 варианта форсированных субтитров:
Forced #1 - Красивые, но могут неправильно идти на железных плеерах.
Forced #2 - Обычные, должны идти везде.

Качество: BDRemux
Контейнер: MKV
Сэмпл
Видео: AVC, 1920x1080 (16:9), 21815 kbps, 23,976 fps, 0,459 bpp
Аудио №1: русский / AC3 / 5.1 / 48 kHz / 448 kbps / 16 bit |Дубляж|
Аудио №2: русский / DTS-HD / 5.1 / 48 kHz / 2299 kbps / 16 bit (Core: 5.1 / 48 kHz / 1510 kbps / 16 bit) |Одноголосый закадровый, Д. Есарев|
Аудио №3: украинский / AC3 / 5.1 / 48 kHz / 448 kbps / 16 bit |Дубляж|
Аудио №4: английский / DTS-HD / 5.1 / 48 kHz / 2369 kbps / 16 bit (Core: 5.1 / 48 kHz / 1510 kbps / 16 bit) |Оригинал|
Навигация по главам: есть
pic pic pic pic pic


General
Unique ID : 203009528350368023991316405294750293640 (0x98BA3684D8EEA8F287A9E8370B20DE88)
Complete name : D:\Gravity.2013.BDRemux.1080p.Dub.VO.Subs.mkv
Format : Matroska
Format version : Version 4 / Version 2
File size : 17.4 GiB
Duration : 1h 30mn
Overall bit rate mode : Variable
Overall bit rate : 27.4 Mbps
Movie name : Гравитация 2013
Encoded date : UTC 2014-03-07 18:50:35
Writing application : mkvmerge v6.6.0 ('The Edge Of The In Between') built on Dec 1 2013 17:55:00
Writing library : libebml v1.3.0 + libmatroska v1.4.1

Video
ID : 1
Format : AVC
Format/Info : Advanced Video Codec
Format profile : High@L4.1
Format settings, CABAC : Yes
Format settings, ReFrames : 2 frames
Codec ID : V_MPEG4/ISO/AVC
Duration : 1h 30mn
Bit rate mode : Variable
Bit rate : 22.8 Mbps
Width : 1 920 pixels
Height : 1 080 pixels
Display aspect ratio : 16:9
Frame rate : 23.976 fps
Color space : YUV
Chroma subsampling : 4:2:0
Bit depth : 8 bits
Scan type : Progressive
Bits/(Pixel*Frame) : 0.459
Stream size : 14.5 GiB (83%)
Default : Yes
Forced : No

Audio #1
ID : 2
Format : AC-3
Format/Info : Audio Coding 3
Mode extension : CM (complete main)
Codec ID : A_AC3
Duration : 1h 30mn
Bit rate mode : Constant
Bit rate : 448 Kbps
Channel(s) : 6 channels
Channel positions : Front: L C R, Side: L R, LFE
Sampling rate : 48.0 KHz
Bit depth : 16 bits
Compression mode : Lossy
Stream size : 292 MiB (2%)
Title : Dub
Language : Russian
Default : Yes
Forced : No

Audio #2
ID : 3
Format : DTS
Format/Info : Digital Theater Systems
Format profile : MA / Core
Codec ID : A_DTS
Duration : 1h 30mn
Bit rate mode : Variable
Bit rate : 1 561 Kbps / 1 510 Kbps
Channel(s) : 6 channels
Channel positions : Front: L C R, Side: L R, LFE
Sampling rate : 48.0 KHz
Bit depth : 16 bits
Compression mode : Lossless / Lossy
Title : VO [Д. Есарев]
Language : Russian
Default : No
Forced : No

Audio #3
ID : 4
Format : AC-3
Format/Info : Audio Coding 3
Mode extension : CM (complete main)
Codec ID : A_AC3
Duration : 1h 30mn
Bit rate mode : Constant
Bit rate : 448 Kbps
Channel(s) : 6 channels
Channel positions : Front: L C R, Side: L R, LFE
Sampling rate : 48.0 KHz
Bit depth : 16 bits
Compression mode : Lossy
Stream size : 292 MiB (2%)
Title : Dub
Language : Ukrainian
Default : No
Forced : No

Audio #4
ID : 5
Format : DTS
Format/Info : Digital Theater Systems
Format profile : MA / Core
Codec ID : A_DTS
Duration : 1h 30mn
Bit rate mode : Variable
Bit rate : 1 561 Kbps / 1 510 Kbps
Channel(s) : 6 channels
Channel positions : Front: L C R, Side: L R, LFE
Sampling rate : 48.0 KHz
Bit depth : 16 bits
Compression mode : Lossless / Lossy
Title : Orig
Language : English
Default : No
Forced : No

Text #1
ID : 6
Format : ASS
Codec ID : S_TEXT/ASS
Codec ID/Info : Advanced Sub Station Alpha
Compression mode : Lossless
Title : Forced #1
Language : Russian
Default : Yes
Forced : No

Text #2
ID : 7
Format : UTF-8
Codec ID : S_TEXT/UTF8
Codec ID/Info : UTF-8 Plain Text
Title : Forced #2
Language : Russian
Default : No
Forced : No

Text #3
ID : 8
Format : UTF-8
Codec ID : S_TEXT/UTF8
Codec ID/Info : UTF-8 Plain Text
Title : Full
Language : Russian
Default : No
Forced : No

Text #4
ID : 9
Format : UTF-8
Codec ID : S_TEXT/UTF8
Codec ID/Info : UTF-8 Plain Text
Title : Full
Language : English
Default : No
Forced : No

Menu
00:00:00.000 : en:00:00:00.000
00:16:21.397 : en:00:16:21.397
00:26:34.134 : en:00:26:34.134
00:38:12.165 : en:00:38:12.165
00:48:53.764 : en:00:48:53.764
00:56:41.982 : en:00:56:41.982
01:09:44.514 : en:01:09:44.514
01:19:22.383 : en:01:19:22.383
01:34:23.658 : en:01:34:23.658

Этот торрент недоступен для скачивания без регистрации, однако доступен по публичной magnet-ссылке (источники с публичных трекеров). Перед использованием ссылки прочтите, пожалуйста Пользовательское соглашение, а также как можно дольше оставайтесь на раздаче! Для того, чтобы скачать сам торрент-файл (который видит больше источников), а также для того, чтобы поблагодарить релизера, вам необходимо зарегистрироваться. Если регистрироваться лень - вы можете также попробовать скачать релиз по нашим партнерским ссылкам ниже. Кроме того, зарегистрированным пользователям не показывается всплывающая реклама при скачивании.

[underverse.su].t37150.torrent
Трекер: Зарегистрирован   [ 12.03.2014 12:57 ]  

Статус: проверено (by 90ytr90 at 13.03.2014 19:42)
Поблагодарили: 2 человека
Тип торрента: публичный - доступные источники с открытых трекеров: 
Размер: 17,4 GB (занимает 3,98 DVDR, для записи нужно 4 болванки DVDR/RW)
 
 
Похожие темы
Форум Тема Автор Торрент Отв. Посл. сооб.
Зарубежное кино [DVDRip, Low-Res HDRip, и т.д.] Гравитация / Gravity (Альфонсо Куарон / Alfonso Cuaron) [2013 г., фантастика, триллер, драма, детектив, HDRip] Dub (iTunes) 90ytr90
0 | 0

0 | 1306

38

07.02.2014 05:43

Зарубежное кино HQ Гравитация / Gravity (Альфонсо Куарон / Alfonso Cuaron) [2013 г., фантастика, триллер, драма, BDRip] Dub HQ Underverse HQ Underverse
3 | 0

0 | 2511

106

14.02.2014 00:42

Зарубежное кино [DVD / HDDVD / BD / Remux] Гравитация / Gravity (Альфонсо Куарон / Alfonso Cuaron) [2013, фантастика, триллер, драма, Blu-ray disc] Dub + Dub (Ukr) + Sub Rus, Eng + Original Eng uzi2009
5 | 0

0 | 1895

9

14.02.2014 18:21

Зарубежное кино [HDDVDRip / BDRip / WEB-DL / HDTV 1080/720р] Гравитация / Gravity (Альфонсо Куарон / Alfonso Cuaron) [2013 г., фантастика, триллер, драма, детектив, BDRip 1080p] Dub (iTunes) + Original (Eng) + Subs 90ytr90
0 | 0

0 | 2144

141

07.02.2014 06:05

Зарубежное кино [HDDVDRip / BDRip / WEB-DL / HDTV 1080/720р] Гравитация / Gravity (Альфонсо Куарон / Alfonso Cuaron) [2013 г., фантастика, триллер, драма, BDRip 720p] Dub (Rus) + 4xAVO (Немахов, Горчаков, Живов, Есарев) + Ukr + Original (Eng) + Subs 90ytr90
13 | 1

0 | 763

17

03.03.2015 20:11

Архив (зарубежное кино высокого качества) Гравитация / Gravity (Альфонсо Куарон / Alfonso Cuaron) [2013 г., фантастика, триллер, драма, BDRip 720p] Dub + Ukr + Original (Eng) + Subs 90ytr90
0 | 0

1 | 702

25

31.01.2018 17:42


Яндекс.Метрика powered by Sphinx


В Н И М А Н И Е
Сайт не распространяет и не хранит электронные версии произведений, а лишь бесплатно и без коммерческой выгоды (не требуя взамен платы,
SMS и т.д.) предоставляет доступ к создаваемому пользователями каталогу ссылок на торрент-файлы, которые содержат только списки хеш-сумм.
Убедительная просьба с жалобами обращаться напрямую к пользователю, разместившему торрент файл.

Вверх