Loading...
Error

Мир с высоты птичьего полета / Полет Земли / Earthflight / Серии: 1-6 из 6 (Джон Даунер / John Downer) [2011, документальный, BDRip 720p] AVO

Статистика раздачи
Размер:  19,47 GB   |    Зарегистрирован:  3 года 8 месяцев   |    Скачан:  10 раз

Полного источника не было: 5 месяцев 15 дней

Сидов:  0  |  0 KB/s  ]   Личеров:  0  |  0 KB/s  ]

* - сиды/пиры с внешних источников

   
 
Автор Сообщение

uzi2009 Пол:Муж

09-Мар-2014 17:36


Мир с высоты птичьего полета / Полет Земли / Earthflight



Год выпуска: 2011
Страна: Великобритания
Жанр: документальный
Продолжительность: 6 х ~00:59:12
Перевод: Одноголосый закадровый (Ю.Сербин)
Режиссер: Джон Даунер / John Downer
Описание: "Земля с птичьего полёта" - Документальный сериал о том, какой предстаёт нашему взору Земля с высоты птичьего полёта, глазами самих птиц, в грандиозном природном калейдоскопе. Потрясающие виды пяти континентов, поданные в новом ракурсе в этом шести серийном фильме, благодаря которому можно присоединиться к стае лапландских гусей, журавлей, фламинго, пеликанов, орлов и прочей птичьей братии. Для создания фильма были использованы последние технологии воздушных съёмок, чтобы мы смогли в мельчайших деталях увидеть всю мощь природы. Взору зрителя откроется ракурс видимый лишь глазу летящего высоко в небе журавля, который проносится над каналами Венеции или пережить плавное скольжение вместе с белоголовым орланом на фоне Великого Каньона. Фильм «Земля с птичьего полёта» откроет перед вами секреты того что таит в себе голубизна неба, показывая мир в совершенно новой и захватывающей перспективе. Комментирует фильм Давид Теннант.
Тип релиза: BDRip 720p
Контейнер: MKV
Видео: 1280x720 at 25.000 fps, x264@L4.1, crf, ~5500-7500 kbps avg
Аудио: Русский: 48 kHz, DTS, 2/0 (L,R) ch, ~768.00 kbps avg
Аудио 2: Английский: 48 kHz, DTS, 2/0 (L,R) ch, ~768.00 kbps avg
01. North America
02. Africa
03. Europe
04. South America
05. Asia and Australia
06. Flying High
General
Unique ID : 223211592854083377945442332770047858398 (0xA7ECFD331D79B41680E2D2FC73FB96DE)
Complete name : D:\Фильмы\Earth.Flight.2011.720p.BluRay.Rus.Eng\Earth.Flight.Ep01.North.America.2011.720p.BluRay.Rus.Eng.mkv
Format : Matroska
Format version : Version 2
File size : 3.82 GiB
Duration : 59mn 15s
Overall bit rate : 9 229 Kbps
Movie name : Earth Flight EP01 North America (2012) - Release for HDCLUB
Encoded date : UTC 2012-05-27 18:05:52
Writing application : mkvmerge v3.4.0 ('Rapunzel') built on May 15 2010 09:38:20
Writing library : libebml v0.8.0 + libmatroska v0.9.0

Video
ID : 1
Format : AVC
Format/Info : Advanced Video Codec
Format profile : High@L4.1
Format settings, CABAC : Yes
Format settings, ReFrames : 8 frames
Codec ID : V_MPEG4/ISO/AVC
Duration : 59mn 15s
Bit rate : 7 523 Kbps
Width : 1 280 pixels
Height : 720 pixels
Display aspect ratio : 16:9
Frame rate mode : Constant
Frame rate : 25.000 fps
Color space : YUV
Chroma subsampling : 4:2:0
Bit depth : 8 bits
Scan type : Progressive
Bits/(Pixel*Frame) : 0.327
Stream size : 3.11 GiB (82%)
Title : Release for HDCLUB
Writing library : x264 core 124 r2197 69a0443
Encoding settings : cabac=1 / ref=8 / deblock=1:-3:-3 / analyse=0x3:0x113 / me=umh / subme=10 / psy=1 / psy_rd=1.00:0.00 / mixed_ref=1 / me_range=32 / chroma_me=1 / trellis=2 / 8x8dct=1 / cqm=0 / deadzone=21,11 / fast_pskip=0 / chroma_qp_offset=-2 / threads=18 / sliced_threads=0 / nr=0 / decimate=0 / interlaced=0 / bluray_compat=0 / constrained_intra=0 / bframes=8 / b_pyramid=2 / b_adapt=2 / b_bias=0 / direct=3 / weightb=1 / open_gop=0 / weightp=2 / keyint=250 / keyint_min=23 / scenecut=40 / intra_refresh=0 / rc_lookahead=60 / rc=crf / mbtree=0 / crf=18.5 / qcomp=0.60 / qpmin=10 / qpmax=51 / qpstep=4 / vbv_maxrate=50000 / vbv_bufsize=62500 / crf_max=0.0 / nal_hrd=none / ip_ratio=1.40 / pb_ratio=1.30 / aq=1:0.80
Language : English
Default : No
Forced : No
Matrix coefficients : BT.709

Audio #1
ID : 2
Format : DTS
Format/Info : Digital Theater Systems
Mode : 16
Format settings, Endianness : Big
Codec ID : A_DTS
Duration : 59mn 15s
Bit rate mode : Constant
Bit rate : 768 Kbps
Channel(s) : 2 channels
Channel positions : Front: L R
Sampling rate : 48.0 KHz
Bit depth : 16 bits
Compression mode : Lossy
Stream size : 325 MiB (8%)
Title : DTS 2.0 @ 768 kbps - Одноголосый закадровый, Ю.Сербин
Language : Russian
Default : Yes
Forced : No

Audio #2
ID : 3
Format : DTS
Format/Info : Digital Theater Systems
Mode : 16
Format settings, Endianness : Big
Codec ID : A_DTS
Duration : 59mn 15s
Bit rate mode : Constant
Bit rate : 755 Kbps
Channel(s) : 2 channels
Channel positions : Front: L R
Sampling rate : 48.0 KHz
Bit depth : 16 bits
Compression mode : Lossy
Stream size : 320 MiB (8%)
Title : DTS 2.0 @ 768 kbps
Language : English
Default : No
Forced : No

Text
ID : 4
Format : UTF-8
Codec ID : S_TEXT/UTF8
Codec ID/Info : UTF-8 Plain Text
Language : English
Default : No
Forced : No

Menu
00:00:00.000 : en:00:00:00.000
00:02:03.000 : en:00:02:03.000
00:16:06.640 : en:00:16:06.640
00:31:09.760 : en:00:31:09.760
00:44:36.160 : en:00:44:36.160
00:58:31.800 : en:00:58:31.800

General
Unique ID : 219642629047687467567722862295858563354 (0xA53DA1B2CF978C8EB0C8367F6188491A)
Complete name : D:\Фильмы\Earth.Flight.2011.720p.BluRay.Rus.Eng\Earth.Flight.Ep02.Africa.2011.720p.BluRay.Rus.Eng.mkv
Format : Matroska
Format version : Version 2
File size : 3.50 GiB
Duration : 59mn 15s
Overall bit rate : 8 452 Kbps
Movie name : Earth Flight EP02 Africa (2012) - Release for HDCLUB
Encoded date : UTC 2012-10-13 08:06:43
Writing application : mkvmerge v3.4.0 ('Rapunzel') built on May 15 2010 09:38:20
Writing library : libebml v0.8.0 + libmatroska v0.9.0

Video
ID : 1
Format : AVC
Format/Info : Advanced Video Codec
Format profile : High@L4.1
Format settings, CABAC : Yes
Format settings, ReFrames : 8 frames
Codec ID : V_MPEG4/ISO/AVC
Duration : 59mn 15s
Bit rate : 6 761 Kbps
Width : 1 280 pixels
Height : 720 pixels
Display aspect ratio : 16:9
Frame rate mode : Constant
Frame rate : 25.000 fps
Color space : YUV
Chroma subsampling : 4:2:0
Bit depth : 8 bits
Scan type : Progressive
Bits/(Pixel*Frame) : 0.293
Stream size : 2.80 GiB (80%)
Title : Release for HDCLUB
Writing library : x264 core 124 r2197 69a0443
Encoding settings : cabac=1 / ref=8 / deblock=1:-3:-3 / analyse=0x3:0x113 / me=umh / subme=10 / psy=1 / psy_rd=1.00:0.00 / mixed_ref=1 / me_range=32 / chroma_me=1 / trellis=2 / 8x8dct=1 / cqm=0 / deadzone=21,11 / fast_pskip=0 / chroma_qp_offset=-2 / threads=18 / sliced_threads=0 / nr=0 / decimate=0 / interlaced=0 / bluray_compat=0 / constrained_intra=0 / bframes=8 / b_pyramid=2 / b_adapt=2 / b_bias=0 / direct=3 / weightb=1 / open_gop=0 / weightp=2 / keyint=250 / keyint_min=23 / scenecut=40 / intra_refresh=0 / rc_lookahead=60 / rc=crf / mbtree=0 / crf=18.5 / qcomp=0.60 / qpmin=10 / qpmax=51 / qpstep=4 / vbv_maxrate=50000 / vbv_bufsize=62500 / crf_max=0.0 / nal_hrd=none / ip_ratio=1.40 / pb_ratio=1.30 / aq=1:0.80
Language : English
Default : No
Forced : No
Matrix coefficients : BT.709

Audio #1
ID : 2
Format : DTS
Format/Info : Digital Theater Systems
Mode : 16
Format settings, Endianness : Big
Codec ID : A_DTS
Duration : 59mn 15s
Bit rate mode : Constant
Bit rate : 768 Kbps
Channel(s) : 2 channels
Channel positions : Front: L R
Sampling rate : 48.0 KHz
Bit depth : 16 bits
Compression mode : Lossy
Stream size : 325 MiB (9%)
Title : DTS 2.0 @ 768 kbps - AVO, Y.Serbin
Language : Russian
Default : Yes
Forced : No

Audio #2
ID : 3
Format : DTS
Format/Info : Digital Theater Systems
Mode : 16
Format settings, Endianness : Big
Codec ID : A_DTS
Duration : 59mn 15s
Bit rate mode : Constant
Bit rate : 755 Kbps
Channel(s) : 2 channels
Channel positions : Front: L R
Sampling rate : 48.0 KHz
Bit depth : 16 bits
Compression mode : Lossy
Stream size : 320 MiB (9%)
Title : DTS 2.0 @ 768 kbps
Language : English
Default : No
Forced : No

Text
ID : 4
Format : UTF-8
Codec ID : S_TEXT/UTF8
Codec ID/Info : UTF-8 Plain Text
Language : English
Default : No
Forced : No

Menu
00:00:00.000 : en:00:00:00.000
00:01:06.280 : en:00:01:06.280
00:15:59.040 : en:00:15:59.040
00:30:19.760 : en:00:30:19.760
00:45:02.720 : en:00:45:02.720
00:58:31.240 : en:00:58:31.240

General
Unique ID : 233425043580123190184529597771271517393 (0xAF9C0732E0BF7B089BC2AC063C1A34D1)
Complete name : D:\Фильмы\Earth.Flight.2011.720p.BluRay.Rus.Eng\Earth.Flight.Ep03.Europe.2011.720p.BluRay.Rus.Eng.mkv
Format : Matroska
Format version : Version 2
File size : 2.96 GiB
Duration : 59mn 13s
Overall bit rate : 7 159 Kbps
Movie name : Earth Flight EP03 Europe (2012) - Release for HDCLUB
Encoded date : UTC 2012-10-13 08:22:24
Writing application : mkvmerge v3.4.0 ('Rapunzel') built on May 15 2010 09:38:20
Writing library : libebml v0.8.0 + libmatroska v0.9.0

Video
ID : 1
Format : AVC
Format/Info : Advanced Video Codec
Format profile : High@L4.1
Format settings, CABAC : Yes
Format settings, ReFrames : 8 frames
Codec ID : V_MPEG4/ISO/AVC
Duration : 59mn 13s
Bit rate : 5 495 Kbps
Width : 1 280 pixels
Height : 720 pixels
Display aspect ratio : 16:9
Frame rate mode : Constant
Frame rate : 25.000 fps
Color space : YUV
Chroma subsampling : 4:2:0
Bit depth : 8 bits
Scan type : Progressive
Bits/(Pixel*Frame) : 0.238
Stream size : 2.27 GiB (77%)
Title : Release for HDCLUB
Writing library : x264 core 124 r2197 69a0443
Encoding settings : cabac=1 / ref=8 / deblock=1:-3:-3 / analyse=0x3:0x113 / me=umh / subme=10 / psy=1 / psy_rd=1.00:0.00 / mixed_ref=1 / me_range=32 / chroma_me=1 / trellis=2 / 8x8dct=1 / cqm=0 / deadzone=21,11 / fast_pskip=0 / chroma_qp_offset=-2 / threads=18 / sliced_threads=0 / nr=0 / decimate=0 / interlaced=0 / bluray_compat=0 / constrained_intra=0 / bframes=8 / b_pyramid=2 / b_adapt=2 / b_bias=0 / direct=3 / weightb=1 / open_gop=0 / weightp=2 / keyint=250 / keyint_min=23 / scenecut=40 / intra_refresh=0 / rc_lookahead=60 / rc=crf / mbtree=0 / crf=18.5 / qcomp=0.60 / qpmin=10 / qpmax=51 / qpstep=4 / vbv_maxrate=50000 / vbv_bufsize=62500 / crf_max=0.0 / nal_hrd=none / ip_ratio=1.40 / pb_ratio=1.30 / aq=1:0.80
Language : English
Default : No
Forced : No
Matrix coefficients : BT.709

Audio #1
ID : 2
Format : DTS
Format/Info : Digital Theater Systems
Mode : 16
Format settings, Endianness : Big
Codec ID : A_DTS
Duration : 59mn 13s
Bit rate mode : Constant
Bit rate : 768 Kbps
Channel(s) : 2 channels
Channel positions : Front: L R
Sampling rate : 48.0 KHz
Bit depth : 16 bits
Compression mode : Lossy
Stream size : 325 MiB (11%)
Title : DTS 2.0 @ 768 kbps - AVO, Y.Serbin
Language : Russian
Default : Yes
Forced : No

Audio #2
ID : 3
Format : DTS
Format/Info : Digital Theater Systems
Mode : 16
Format settings, Endianness : Big
Codec ID : A_DTS
Duration : 59mn 13s
Bit rate mode : Constant
Bit rate : 755 Kbps
Channel(s) : 2 channels
Channel positions : Front: L R
Sampling rate : 48.0 KHz
Bit depth : 16 bits
Compression mode : Lossy
Stream size : 320 MiB (11%)
Title : DTS 2.0 @ 768 kbps
Language : English
Default : No
Forced : No

Text
ID : 4
Format : UTF-8
Codec ID : S_TEXT/UTF8
Codec ID/Info : UTF-8 Plain Text
Language : English
Default : No
Forced : No

Menu
00:00:00.000 : en:00:00:00.000
00:01:06.280 : en:00:01:06.280
00:15:58.960 : en:00:15:58.960
00:27:22.880 : en:00:27:22.880
00:43:31.800 : en:00:43:31.800
00:58:31.000 : en:00:58:31.000

General
Unique ID : 210618779311575870291463925775983051689 (0x9E73B38E77E847E7B0ACBB82190A03A9)
Complete name : D:\Фильмы\Earth.Flight.2011.720p.BluRay.Rus.Eng\Earth.Flight.Ep04.South.America.2011.720p.BluRay.Rus.Eng.mkv
Format : Matroska
Format version : Version 2
File size : 3.23 GiB
Duration : 59mn 16s
Overall bit rate : 7 809 Kbps
Movie name : Earth Flight EP04 South America (2012) - Release for HDCLUB
Encoded date : UTC 2012-10-13 08:56:47
Writing application : mkvmerge v3.4.0 ('Rapunzel') built on May 15 2010 09:38:20
Writing library : libebml v0.8.0 + libmatroska v0.9.0

Video
ID : 1
Format : AVC
Format/Info : Advanced Video Codec
Format profile : High@L4.1
Format settings, CABAC : Yes
Format settings, ReFrames : 8 frames
Codec ID : V_MPEG4/ISO/AVC
Duration : 59mn 16s
Bit rate : 6 131 Kbps
Width : 1 280 pixels
Height : 720 pixels
Display aspect ratio : 16:9
Frame rate mode : Constant
Frame rate : 25.000 fps
Color space : YUV
Chroma subsampling : 4:2:0
Bit depth : 8 bits
Scan type : Progressive
Bits/(Pixel*Frame) : 0.266
Stream size : 2.54 GiB (79%)
Title : Release for HDCLUB
Writing library : x264 core 124 r2197 69a0443
Encoding settings : cabac=1 / ref=8 / deblock=1:-3:-3 / analyse=0x3:0x113 / me=umh / subme=10 / psy=1 / psy_rd=1.00:0.00 / mixed_ref=1 / me_range=32 / chroma_me=1 / trellis=2 / 8x8dct=1 / cqm=0 / deadzone=21,11 / fast_pskip=0 / chroma_qp_offset=-2 / threads=18 / sliced_threads=0 / nr=0 / decimate=0 / interlaced=0 / bluray_compat=0 / constrained_intra=0 / bframes=8 / b_pyramid=2 / b_adapt=2 / b_bias=0 / direct=3 / weightb=1 / open_gop=0 / weightp=2 / keyint=250 / keyint_min=23 / scenecut=40 / intra_refresh=0 / rc_lookahead=60 / rc=crf / mbtree=0 / crf=18.5 / qcomp=0.60 / qpmin=10 / qpmax=51 / qpstep=4 / vbv_maxrate=50000 / vbv_bufsize=62500 / crf_max=0.0 / nal_hrd=none / ip_ratio=1.40 / pb_ratio=1.30 / aq=1:0.80
Language : English
Default : No
Forced : No
Matrix coefficients : BT.709

Audio #1
ID : 2
Format : DTS
Format/Info : Digital Theater Systems
Mode : 16
Format settings, Endianness : Big
Codec ID : A_DTS
Duration : 59mn 16s
Bit rate mode : Constant
Bit rate : 768 Kbps
Channel(s) : 2 channels
Channel positions : Front: L R
Sampling rate : 48.0 KHz
Bit depth : 16 bits
Compression mode : Lossy
Stream size : 326 MiB (10%)
Title : DTS 2.0 @ 768 kbps - AVO, Y.Serbin
Language : Russian
Default : Yes
Forced : No

Audio #2
ID : 3
Format : DTS
Format/Info : Digital Theater Systems
Mode : 16
Format settings, Endianness : Big
Codec ID : A_DTS
Duration : 59mn 16s
Bit rate mode : Constant
Bit rate : 755 Kbps
Channel(s) : 2 channels
Channel positions : Front: L R
Sampling rate : 48.0 KHz
Bit depth : 16 bits
Compression mode : Lossy
Stream size : 320 MiB (10%)
Title : DTS 2.0 @ 768 kbps
Language : English
Default : No
Forced : No

Text
ID : 4
Format : UTF-8
Codec ID : S_TEXT/UTF8
Codec ID/Info : UTF-8 Plain Text
Language : English
Default : No
Forced : No

Menu
00:00:00.000 : en:00:00:00.000
00:01:06.000 : en:00:01:06.000
00:13:56.640 : en:00:13:56.640
00:30:36.080 : en:00:30:36.080
00:44:31.560 : en:00:44:31.560
00:58:31.000 : en:00:58:31.000

General
Unique ID : 224075248265966358632946253279511375299 (0xA89352B2F495CE0AA9332F286172EDC3)
Complete name : D:\Фильмы\Earth.Flight.2011.720p.BluRay.Rus.Eng\Earth.Flight.Ep05.Asia.and.Australia.2011.720p.BluRay.Rus.Eng.mkv
Format : Matroska
Format version : Version 2
File size : 2.94 GiB
Duration : 59mn 16s
Overall bit rate : 7 101 Kbps
Movie name : Earth Flight EP05 Asia and Australia (2012) - Release for HDCLUB
Encoded date : UTC 2012-10-13 10:06:03
Writing application : mkvmerge v3.4.0 ('Rapunzel') built on May 15 2010 09:38:20
Writing library : libebml v0.8.0 + libmatroska v0.9.0

Video
ID : 1
Format : AVC
Format/Info : Advanced Video Codec
Format profile : High@L4.1
Format settings, CABAC : Yes
Format settings, ReFrames : 8 frames
Codec ID : V_MPEG4/ISO/AVC
Duration : 59mn 16s
Bit rate : 5 437 Kbps
Width : 1 280 pixels
Height : 720 pixels
Display aspect ratio : 16:9
Frame rate mode : Constant
Frame rate : 25.000 fps
Color space : YUV
Chroma subsampling : 4:2:0
Bit depth : 8 bits
Scan type : Progressive
Bits/(Pixel*Frame) : 0.236
Stream size : 2.25 GiB (77%)
Title : Release for HDCLUB
Writing library : x264 core 124 r2197 69a0443
Encoding settings : cabac=1 / ref=8 / deblock=1:-3:-3 / analyse=0x3:0x113 / me=umh / subme=10 / psy=1 / psy_rd=1.00:0.00 / mixed_ref=1 / me_range=32 / chroma_me=1 / trellis=2 / 8x8dct=1 / cqm=0 / deadzone=21,11 / fast_pskip=0 / chroma_qp_offset=-2 / threads=18 / sliced_threads=0 / nr=0 / decimate=0 / interlaced=0 / bluray_compat=0 / constrained_intra=0 / bframes=8 / b_pyramid=2 / b_adapt=2 / b_bias=0 / direct=3 / weightb=1 / open_gop=0 / weightp=2 / keyint=250 / keyint_min=23 / scenecut=40 / intra_refresh=0 / rc_lookahead=60 / rc=crf / mbtree=0 / crf=18.5 / qcomp=0.60 / qpmin=10 / qpmax=51 / qpstep=4 / vbv_maxrate=50000 / vbv_bufsize=62500 / crf_max=0.0 / nal_hrd=none / ip_ratio=1.40 / pb_ratio=1.30 / aq=1:0.80
Language : English
Default : No
Forced : No
Matrix coefficients : BT.709

Audio #1
ID : 2
Format : DTS
Format/Info : Digital Theater Systems
Mode : 16
Format settings, Endianness : Big
Codec ID : A_DTS
Duration : 59mn 16s
Bit rate mode : Constant
Bit rate : 768 Kbps
Channel(s) : 2 channels
Channel positions : Front: L R
Sampling rate : 48.0 KHz
Bit depth : 16 bits
Compression mode : Lossy
Stream size : 326 MiB (11%)
Title : DTS 2.0 @ 768 kbps - AVO, Y.Serbin
Language : Russian
Default : Yes
Forced : No

Audio #2
ID : 3
Format : DTS
Format/Info : Digital Theater Systems
Mode : 16
Format settings, Endianness : Big
Codec ID : A_DTS
Duration : 59mn 16s
Bit rate mode : Constant
Bit rate : 755 Kbps
Channel(s) : 2 channels
Channel positions : Front: L R
Sampling rate : 48.0 KHz
Bit depth : 16 bits
Compression mode : Lossy
Stream size : 320 MiB (11%)
Title : DTS 2.0 @ 768 kbps
Language : English
Default : No
Forced : No

Text
ID : 4
Format : UTF-8
Codec ID : S_TEXT/UTF8
Codec ID/Info : UTF-8 Plain Text
Language : English
Default : No
Forced : No

Menu
00:00:00.000 : en:00:00:00.000
00:01:06.000 : en:00:01:06.000
00:13:18.480 : en:00:13:18.480
00:26:59.000 : en:00:26:59.000
00:41:02.480 : en:00:41:02.480
00:58:31.920 : en:00:58:31.920

General
Unique ID : 227525935741877715274964661980046962389 (0xAB2BE6BA16EB38C5B1CCFA817FEE2ED5)
Complete name : D:\Фильмы\Earth.Flight.2011.720p.BluRay.Rus.Eng\Earth.Flight.Ep06.Flying.High.2011.720p.BluRay.Rus.Eng.mkv
Format : Matroska
Format version : Version 2
File size : 3.02 GiB
Duration : 59mn 12s
Overall bit rate : 7 298 Kbps
Movie name : Earth Flight EP06 Flying High (2012) - Release for HDCLUB
Encoded date : UTC 2012-10-13 10:28:30
Writing application : mkvmerge v3.4.0 ('Rapunzel') built on May 15 2010 09:38:20
Writing library : libebml v0.8.0 + libmatroska v0.9.0

Video
ID : 1
Format : AVC
Format/Info : Advanced Video Codec
Format profile : High@L4.1
Format settings, CABAC : Yes
Format settings, ReFrames : 8 frames
Codec ID : V_MPEG4/ISO/AVC
Duration : 59mn 12s
Bit rate : 5 631 Kbps
Width : 1 280 pixels
Height : 720 pixels
Display aspect ratio : 16:9
Frame rate mode : Constant
Frame rate : 25.000 fps
Color space : YUV
Chroma subsampling : 4:2:0
Bit depth : 8 bits
Scan type : Progressive
Bits/(Pixel*Frame) : 0.244
Stream size : 2.33 GiB (77%)
Title : Release for HDCLUB
Writing library : x264 core 124 r2197 69a0443
Encoding settings : cabac=1 / ref=8 / deblock=1:-3:-3 / analyse=0x3:0x113 / me=umh / subme=10 / psy=1 / psy_rd=1.00:0.00 / mixed_ref=1 / me_range=32 / chroma_me=1 / trellis=2 / 8x8dct=1 / cqm=0 / deadzone=21,11 / fast_pskip=0 / chroma_qp_offset=-2 / threads=18 / sliced_threads=0 / nr=0 / decimate=0 / interlaced=0 / bluray_compat=0 / constrained_intra=0 / bframes=8 / b_pyramid=2 / b_adapt=2 / b_bias=0 / direct=3 / weightb=1 / open_gop=0 / weightp=2 / keyint=250 / keyint_min=23 / scenecut=40 / intra_refresh=0 / rc_lookahead=60 / rc=crf / mbtree=0 / crf=18.5 / qcomp=0.60 / qpmin=10 / qpmax=51 / qpstep=4 / vbv_maxrate=50000 / vbv_bufsize=62500 / crf_max=0.0 / nal_hrd=none / ip_ratio=1.40 / pb_ratio=1.30 / aq=1:0.80
Language : English
Default : No
Forced : No
Matrix coefficients : BT.709

Audio #1
ID : 2
Format : DTS
Format/Info : Digital Theater Systems
Mode : 16
Format settings, Endianness : Big
Codec ID : A_DTS
Duration : 59mn 12s
Bit rate mode : Constant
Bit rate : 768 Kbps
Channel(s) : 2 channels
Channel positions : Front: L R
Sampling rate : 48.0 KHz
Bit depth : 16 bits
Compression mode : Lossy
Stream size : 325 MiB (11%)
Title : DTS 2.0 @ 768 kbps - AVO, Y.Serbin
Language : Russian
Default : Yes
Forced : No

Audio #2
ID : 3
Format : DTS
Format/Info : Digital Theater Systems
Mode : 16
Format settings, Endianness : Big
Codec ID : A_DTS
Duration : 59mn 12s
Bit rate mode : Constant
Bit rate : 755 Kbps
Channel(s) : 2 channels
Channel positions : Front: L R
Sampling rate : 48.0 KHz
Bit depth : 16 bits
Compression mode : Lossy
Stream size : 319 MiB (10%)
Title : DTS 2.0 @ 768 kbps
Language : English
Default : No
Forced : No

Text
ID : 4
Format : UTF-8
Codec ID : S_TEXT/UTF8
Codec ID/Info : UTF-8 Plain Text
Language : English
Default : No
Forced : No

Menu
00:00:00.000 : en:00:00:00.000
00:01:06.000 : en:00:01:06.000
00:13:18.480 : en:00:13:18.480
00:26:59.000 : en:00:26:59.000
00:41:02.480 : en:00:41:02.480
00:58:31.920 : en:00:58:31.920
Перевод и озвучка осуществлены в рамках сервиса "Озвучивание". Спонсоры: LibrarianA, Snow_Leopard, rassvet, gelom, Loki1982, Baron0580, Kacok_321, Кириллка, jezburg68, Kator, Lissa, Evgecha_72, Воваростов, user_hdclub, Soiree, yuriker, levanevski, DeTorquemada, Turko, daft8, alb9925, PoHHaN, farmazon, Johnny_78, kimi.
pic pic pic pic pic

Этот торрент недоступен для скачивания без регистрации, однако доступен по публичной magnet-ссылке (источники с публичных трекеров). Перед использованием ссылки прочтите, пожалуйста Пользовательское соглашение, а также как можно дольше оставайтесь на раздаче! Для того, чтобы скачать сам торрент-файл (который видит больше источников), а также для того, чтобы поблагодарить релизера, вам необходимо зарегистрироваться. Если регистрироваться лень - вы можете также попробовать скачать релиз по нашим партнерским ссылкам ниже.

[underverse.su].t37045.torrent
Трекер: Зарегистрирован   [ 09.03.2014 17:36 ]  

Статус: проверено (by 90ytr90 at 09.03.2014 18:54)
Поблагодарили: пока никто не поблагодарил...
Тип торрента: публичный - доступные источники с открытых трекеров: 
Размер: 19,47 GB (занимает 4,45 DVDR, для записи нужно 5 болванок DVDR/RW)
 
 

Яндекс.Метрика powered by Sphinx


В Н И М А Н И Е
Сайт не распространяет и не хранит электронные версии произведений, а лишь бесплатно и без коммерческой выгоды (не требуя взамен платы,
SMS и т.д.) предоставляет доступ к создаваемому пользователями каталогу ссылок на торрент-файлы, которые содержат только списки хеш-сумм.
Убедительная просьба с жалобами обращаться напрямую к пользователю, разместившему торрент файл.

Вверх