Loading...
Error

Зеленый рай / Green Paradise / Серии: 1-20 (Жан Фромен / Jean Froment, Оливье Лямур / Olivier L'amour, Жан Фромен / Jean Froment, Паскаль Васселин / Pascal Vasselin, Мартин Бланшар / Martin Blanshar) [2007, документальный, HDTV 1080i]

Статистика раздачи
Размер:  43,76 GB   |    Зарегистрирован:  3 года 8 месяцев   |    Скачан:  11 раз

Полного источника не было: 3 месяца 17 дней

Сидов:  0  |  0 KB/s  ]   Личеров:  0  |  0 KB/s  ]

* - сиды/пиры с внешних источников

   
 
Автор Сообщение

uzi2009 Пол:Муж

08-Мар-2014 19:45

Зеленый рай / Green Paradise

Год выпуска: 2007
Страна: Франция
Студия: ARTE G.E.I.E.
Жанр: Документальный
Продолжительность: 20 х ~ 00:26:00
Перевод: Профессиональный (двухголосый закадровый)
Доп. инфо о переводе: ТПО «РЕД МЕДИА»
Русские субтитры: нет

Режиссер: Жан Фромен / Jean Froment, Оливье Лямур / Olivier L'amour, Жан Фромен / Jean Froment, Паскаль Васселин / Pascal Vasselin, Мартин Бланшар / Martin Blanshar, Дэнис Бертран / Denis Bertrand, Жан-Ив Кашар / Jean-Yves Cachare

Описание: Самые красивые уголки планеты... Флиппины, острова Сива, Южной Африки, Эспаньола... Тысячи и тысячи островов и архипелагов, все это в документальном сериале "Зеленый Рай"...



Тип релиза: HDTV 1080i
Контейнер: M2TS

Видео: MPEG-4 AVC Video, 1920 х 1080 (16:9), 25,000 кадров/сек, ~ 12,0 Мбит/сек, ~ 0.222 бит/пиксель
Аудио: Audio Coding 3, 48,0 КГц, 192 Кбит/сек, 2 канала (Front: L R)

Релиз группы: RG Doc. Film
01. Зеленый рай. Австралия-3. Волшебное восточное побережье Австралии
02. Зеленый рай. Багамские острова-3. В самом центре океана
03. Зеленый рай. Белиз-3. Джунгли и кораллы
04. Зеленый рай. Бразилия-1. Сохраненная красота
05. Зеленый рай. Бразилия-3. Бурные реки Бразилии
06. Зеленый рай. Доминиканская Республика-2. Карибское сокровище
07. Зеленый рай. Египет-1. Вода и песок
08. Зеленый рай. Индонезия-2. Дикие острова
09. Зеленый рай. Коста-Рика-2. Чистая природа
10. Зеленый рай. Мадагаскар-1. Многогранная земля
11. Зеленый рай. Марокко-2. Южное волшебство
12. Зеленый рай. Мексика-1. Пустыня между двух морей
13. Зеленый рай. Мозамбик-3. Африканский рассве
14. Зеленый рай. Намибия-3. Фауна и песок
15. Зеленый рай. Новая Каледония-2. Красный остров с зеленым сердцем
16. Зеленый рай. Сейшелы. Грёзы природы
17. Зеленый рай. Фиджи-3. Вкус островов Фиджи
18. Зеленый рай. Филиппины-3. Неисследованный архипелаг
19. Зеленый рай. Чили-2. В суровой и бескрайней земле
20. Зеленый рай. Южная Африка. Страна радуги
Общее
Идентификатор : 0 (0x0)
Полное имя : D:\torrent\Зеленый рай\Зеленый рай. Страна радуги (эпизод 9).m2ts
Формат : BDAV
Формат/Информация : Blu-ray Video
Размер файла : 2,27 Гбайт
Продолжительность : 26 м.
Режим общего битрейта : Переменный
Общий поток : 12,4 Мбит/сек
Максимальный общий битрейт : 24,0 Мбит/сек

Видео
Идентификатор : 4113 (0x1011)
Идентификатор меню : 1 (0x1)
Формат : AVC
Формат/Информация : Advanced Video Codec
Профиль формата : High@L4.0
Параметр CABAC формата : Да
Параметр ReFrames формата : 3 кадра
Идентификатор кодека : 27
Продолжительность : 26 м.
Битрейт : 11,7 Мбит/сек
Ширина : 1920 пикселей
Высота : 1080 пикселей
Соотношение сторон : 16:9
Частота кадров : 25,000 кадров/сек
Стандарт вещания : Component
Цветовое пространство : YUV
Субдискретизация насыщенности : 4:2:0
Битовая глубина : 8 бит
Тип развёртки : Чересстрочная
Порядок развёртки : Верхнее поле первое
Бит/(Пиксели*Кадры) : 0.226
Размер потока : 2,14 Гбайт (94%)
Основные цвета : BT.709
Характеристики трансфера : BT.709
Коэффициенты матрицы : BT.709

Аудио
Идентификатор : 4352 (0x1100)
Идентификатор меню : 1 (0x1)
Формат : AC-3
Формат/Информация : Audio Coding 3
Расширение режима : CM (complete main)
Параметр Endianness формата : Big
Идентификатор кодека : 129
Продолжительность : 26 м.
Вид битрейта : Постоянный
Битрейт : 192 Кбит/сек
Каналы : 2 канала
Расположение каналов : Front: L R
Частота : 48,0 КГц
Битовая глубина : 16 бит
Метод сжатия : С потерями
Размер потока : 36,0 Мбайт (2%)
pic pic pic pic pic pic pic pic pic pic

Этот торрент недоступен для скачивания без регистрации, однако доступен по публичной magnet-ссылке (источники с публичных трекеров). Перед использованием ссылки прочтите, пожалуйста Пользовательское соглашение, а также как можно дольше оставайтесь на раздаче! Для того, чтобы скачать сам торрент-файл (который видит больше источников), а также для того, чтобы поблагодарить релизера, вам необходимо зарегистрироваться. Если регистрироваться лень - вы можете также попробовать скачать релиз по нашим партнерским ссылкам ниже.

[underverse.su].t37029.torrent
Трекер: Зарегистрирован   [ 08.03.2014 19:45 ]  

Статус: проверено (by garry at 11.03.2014 08:24)
Поблагодарили: 2 человека
Тип торрента: публичный - доступные источники с открытых трекеров: 
Размер: 43,76 GB (занимает 10 DVDR, для записи нужно 10 болванок DVDR/RW)
 
 

Яндекс.Метрика powered by Sphinx


В Н И М А Н И Е
Сайт не распространяет и не хранит электронные версии произведений, а лишь бесплатно и без коммерческой выгоды (не требуя взамен платы,
SMS и т.д.) предоставляет доступ к создаваемому пользователями каталогу ссылок на торрент-файлы, которые содержат только списки хеш-сумм.
Убедительная просьба с жалобами обращаться напрямую к пользователю, разместившему торрент файл.

Вверх