Loading...
Error

Неудержимые / The Expendables (Сильвестр Сталлоне / Sylvester Stallone) [2010, США, боевик, триллер, приключения, BDRemux 1080p] Dub + VO [Володарский] + AVO [Гаврилов] Sub Rus + Original Eng

Статистика раздачи
Размер:  24,48 GB   |    Зарегистрирован:  4 года 2 месяца   |    Скачан:  3 раза

Полного источника не было: 5 часов

Сидов:  0  |  0 KB/s  ]   Личеров:  0  |  0 KB/s  ]

* - сиды/пиры с внешних источников

   
 
Автор Сообщение

uzi2009 Пол:Муж

07-Мар-2014 14:06

Неудержимые / The Expendables

Страна: США
Студия: Millennium Films
Жанр: боевик, триллер, приключения
Год выпуска: 2010
Продолжительность: 01:43:28
Перевод 1: Профессиональный (дублированный) |Дубляж, Blu-ray|
Перевод 2: Профессиональный (дублированный) |Дубляж|
Перевод 3: Одноголосый (закадровый) |Л.Володарский|
Перевод 4: Авторский (одноголосый закадровый) |Гаврилов|
Cубтитры: русские(forced,full),английские(full,SDH)
Оригинальная аудиодорожка: английский

Режиссер: Сильвестр Сталлоне / Sylvester Stallone

В ролях: Сильвестр Сталлоне, Арнольд Шварценеггер, Брюс Уиллис, Микки Рурк, Джейсон Стэтхэм, Джет Ли, Дольф Лундгрен, Эрик Робертс, Рэнди Кутюр, Стив Остин, Дэвид Зайас, Жизель Итье, Харизма Карпентер, Гарри Дэниелс, Тэрри Крю, Хэнк Амос

Описание: Отряд профессиональных наёмников и отчаянных парней во главе с Барни Россом получает непростое задание — любой ценой найти и уничтожить кровавого тирана-диктатора, нагнетающего страх на мирное население и сеющего хаос в южноамериканской стране. Отправляясь на выполнение нелёгкой миссии, закалённые огнём и водой, прошедшие не одну войну, люди Росса попадают в самое пекло. Отныне им придётся выживать: сплотиться и достигнуть цели, либо отчаяться и погибнуть. И всё же эти храбрые, поистине невозмутимые ребята готовы реализовать даже не реализуемое. Но не всё так просто, как кажется на первый взгляд…



Тип релиза: BDRemux 1080p
Контейнер: MKV

Исходник: The Expendables 2010 Blu-ray 1080p AVC DTS-HD MA 7.1-CHDBits
Видео: AVC,1920x1080, 28200Kbps,23.976 fps
Аудио 1: DTS-HD Master Audio/Russian/3091 kbps 7.1 / 48 kHz / 3091 kbps / 24-bit (DTS Core:7.1 / 48 kHz / 1509 kbps / 24-bit) |Дубляж, Blu-ray|
Аудио 2: Ukraine: 48 kHz, AC3, 2/0 (L,R) ch, ~384.00 kbps avg |Дубляж|
Аудио 3: Russian: 48 kHz, AC3, 2/0 (L,R) ch, ~384.00 kbps avg |Л.Володарский|
Аудио 4: Russian: 48 kHz, AC3, 3/2 (L,C,R,l,r) + LFE ch, ~448.00 kbps|Гаврилов|
Аудио 5: DTS-HD Master Audio/English/5697 kbps 7.1 / 48 kHz / 5697 kbps / 24-bit (DTS Core: 7.1 / 48 kHz / 1509 kbps / 24-bit) |Original|
Аудио 6:English: 48 kHz, AC3, 2/0 (L,R) ch, ~224.00 kbps avg |Commentary|
Чаптеры:есть


General
Unique ID : 226909559852505917543422736068989226679 (0xAAB5310C9DE5BDAB867015A803150EB7)
Complete name : D:\Downloads\Видео\The Expendables (2010) 1080p BD-Remux.mkv
Format : Matroska
File size : 24.5 GiB
Duration : 1h 43mn
Overall bit rate : 33.9 Mbps
Movie name : -Talian-
Encoded date : UTC 2012-01-17 12:38:25
Writing application : mkvmerge v5.0.1 ('Es ist Sommer') built on Oct 9 2011 11:55:43
Writing library : libebml v1.2.2 + libmatroska v1.3.0

Video
ID : 1
Format : AVC
Format/Info : Advanced Video Codec
Format profile : High@L4.1
Format settings, CABAC : Yes
Format settings, ReFrames : 4 frames
Codec ID : V_MPEG4/ISO/AVC
Duration : 1h 43mn
Bit rate mode : Variable
Bit rate : 28.2 Mbps
Maximum bit rate : 38.0 Mbps
Width : 1 920 pixels
Height : 1 080 pixels
Display aspect ratio : 16:9
Frame rate : 23.976 fps
Standard : NTSC
Color space : YUV
Chroma subsampling : 4:2:0
Bit depth : 8 bits
Scan type : Progressive
Bits/(Pixel*Frame) : 0.568
Stream size : 20.4 GiB (83%)
Title : The Expendables (2010) 1080p BD-Remux
Language : English
Color primaries : BT.709-5, BT.1361, IEC 61966-2-4, SMPTE RP177
Transfer characteristics : BT.709-5, BT.1361
Matrix coefficients : BT.709-5, BT.1361, IEC 61966-2-4 709, SMPTE RP177

Audio #1
ID : 2
Format : DTS
Format/Info : Digital Theater Systems
Format profile : MA / Core
Codec ID : A_DTS
Duration : 1h 43mn
Bit rate mode : Variable
Bit rate : 1 903 Kbps / 1 510 Kbps
Channel(s) : 8 channels / 6 channels
Channel positions : Front: L C R, Side: L R, Back: L R, LFE / Front: L C R, Side: L R, LFE
Sampling rate : 48.0 KHz
Bit depth : 16 bits
Compression mode : Lossless / Lossy
Title : DUB-Blu-ray
Language : Russian

Audio #2
ID : 3
Format : AC-3
Format/Info : Audio Coding 3
Mode extension : CM (complete main)
Codec ID : A_AC3
Duration : 1h 43mn
Bit rate mode : Constant
Bit rate : 384 Kbps
Channel(s) : 2 channels
Channel positions : Front: L R
Sampling rate : 48.0 KHz
Bit depth : 16 bits
Compression mode : Lossy
Stream size : 284 MiB (1%)
Title : DUB
Language : Ukrainian

Audio #3
ID : 4
Format : AC-3
Format/Info : Audio Coding 3
Mode extension : CM (complete main)
Codec ID : A_AC3
Duration : 1h 43mn
Bit rate mode : Constant
Bit rate : 384 Kbps
Channel(s) : 2 channels
Channel positions : Front: L R
Sampling rate : 48.0 KHz
Bit depth : 16 bits
Compression mode : Lossy
Stream size : 284 MiB (1%)
Title : VO-Volodarsky
Language : Russian

Audio #4
ID : 5
Format : AC-3
Format/Info : Audio Coding 3
Mode extension : CM (complete main)
Codec ID : A_AC3
Duration : 1h 43mn
Bit rate mode : Constant
Bit rate : 448 Kbps
Channel(s) : 6 channels
Channel positions : Front: L C R, Side: L R, LFE
Sampling rate : 48.0 KHz
Bit depth : 16 bits
Compression mode : Lossy
Stream size : 332 MiB (1%)
Title : AVO-Gavrilov
Language : Russian

Audio #5
ID : 6
Format : AC-3
Format/Info : Audio Coding 3
Format profile : Dolby Digital
Mode extension : CM (complete main)
Codec ID : A_AC3
Duration : 1h 43mn
Bit rate mode : Constant
Bit rate : 224 Kbps
Channel(s) : 2 channels
Channel positions : Front: L R
Sampling rate : 48.0 KHz
Bit depth : 16 bits
Compression mode : Lossy
Stream size : 166 MiB (1%)
Title : Commentary
Language : English

Audio #6
ID : 7
Format : DTS
Format/Info : Digital Theater Systems
Format profile : MA / Core
Codec ID : A_DTS
Duration : 1h 43mn
Bit rate mode : Variable
Bit rate : 1 606 Kbps / 1 510 Kbps
Channel(s) : 8 channels / 6 channels
Channel positions : Front: L C R, Side: L R, Back: L R, LFE / Front: L C R, Side: L R, LFE
Sampling rate : 48.0 KHz
Bit depth : 24 bits
Compression mode : Lossless / Lossy
Title : Original
Language : English

Text #1
ID : 8
Format : UTF-8
Codec ID : S_TEXT/UTF8
Codec ID/Info : UTF-8 Plain Text
Title : Sub-forced
Language : Russian

Text #2
ID : 9
Format : UTF-8
Codec ID : S_TEXT/UTF8
Codec ID/Info : UTF-8 Plain Text
Title : Sub
Language : Russian

Text #3
ID : 10
Format : UTF-8
Codec ID : S_TEXT/UTF8
Codec ID/Info : UTF-8 Plain Text
Title : Sub-full
Language : English

Text #4
ID : 11
Format : UTF-8
Codec ID : S_TEXT/UTF8
Codec ID/Info : UTF-8 Plain Text
Title : Sub-SDH
Language : English

Menu
00:00:00.000 : 00:00:00.000
00:08:50.822 : 00:08:50.822
00:17:32.176 : 00:17:32.176
00:22:47.741 : 00:22:47.741
00:30:35.167 : 00:30:35.167
00:33:34.846 : 00:33:34.846
00:38:17.128 : 00:38:17.128
00:47:51.785 : 00:47:51.785
00:50:15.179 : 00:50:15.179
00:55:09.222 : 00:55:09.222
01:00:15.737 : 01:00:15.737
01:06:31.529 : 01:06:31.529
01:13:36.537 : 01:13:36.537
01:20:17.229 : 01:20:17.229
01:26:01.323 : 01:26:01.323
01:31:17.180 : 01:31:17.180
pic pic pic pic pic

Этот торрент недоступен для скачивания без регистрации, однако доступен по публичной magnet-ссылке (источники с публичных трекеров). Перед использованием ссылки прочтите, пожалуйста Пользовательское соглашение, а также как можно дольше оставайтесь на раздаче! Для того, чтобы скачать сам торрент-файл (который видит больше источников), а также для того, чтобы поблагодарить релизера, вам необходимо зарегистрироваться. Если регистрироваться лень - вы можете также попробовать скачать релиз по нашим партнерским ссылкам ниже. Кроме того, зарегистрированным пользователям не показывается всплывающая реклама при скачивании.

[underverse.su].t37000.torrent
Трекер: Зарегистрирован   [ 07.03.2014 14:06 ]  

Статус: T временная (by 90ytr90 at 07.03.2014 19:51)
Поблагодарили: пока никто не поблагодарил...
Тип торрента: публичный - доступные источники с открытых трекеров: 
Размер: 24,48 GB (занимает 5,59 DVDR, для записи нужно 6 болванок DVDR/RW)
 
 
Похожие темы
Форум Тема Автор Торрент Отв. Посл. сооб.
Зарубежное кино [DVDRip, Low-Res HDRip, и т.д.] Неудержимые / The Expendables [2010 г., боевик, триллер, приключения , HDRip][Лицензия] P.O.C.O.X.A
0 | 0

1 | 1403

44

27.03.2011 15:17

Зарубежное кино [DVDRip, Low-Res HDRip, и т.д.] Неудержимые викинги / Sweaty Beards (Йоаким Ярдеби) [2010 г., комедия, DVDRip] RG NewCinema
1 | 0

0 | 1133

30

16.09.2012 21:41

Зарубежное кино [DVDRip, Low-Res HDRip, и т.д.] Неудержимые 2 / The Expendables 2 (Саймон Уэст) [2012 г., Боевик, приключения, HDRip] Dub [Лицензия] 90ytr90
0 | 0

2 | 2437

306

08.10.2012 09:00

Зарубежное кино [DVDRip, Low-Res HDRip, и т.д.] Неудержимые 2 / The Expendables 2 (Саймон Уэст / Simon West) [2012, США, боевик, триллер, приключения, HDRip-AVC] Dub + Sub Rus + Original Eng Garnett
3 | 0

1 | 1127

6

12.12.2012 18:59

Зарубежное кино [DVDRip, Low-Res HDRip, и т.д.] Неудержимые 2 / The Expendables 2 (Саймон Уэст) [2012 г., боевик, приключения, HDRip] Dub + Eng 90ytr90
3 | 0

0 | 1418

34

10.03.2013 16:48

Зарубежное кино [DVDRip, Low-Res HDRip, и т.д.] Неудержимые 2 / The Expendables 2 (Саймон Уэст) [2012 г., боевик, триллер, приключения, BDRip] AVO (Гоблин) + Dub Mahmud_1
1 | 0

0 | 1720

36

25.03.2013 12:10

Зарубежное кино [DVDRip, Low-Res HDRip, и т.д.] Неудержимый / Bullet to the Head (Уолтер Хилл) [2012 г., боевик, триллер, криминал, BDRip] Dub garry
1 | 0

0 | 1771

27

27.10.2013 13:12

Зарубежное кино [DVDRip, Low-Res HDRip, и т.д.] Неудержимые 3 / The Expendables 3 (Патрик Хьюз / Patrick Hughes) [2014 г., боевик, триллер, приключения, HDRip-AVC] [Teatrical Cut] Dub + Original (Eng) + Sub (Rus, Eng) 90ytr90
2 | 0

0 | 785

6

22.11.2014 09:00

Зарубежное кино [DVDRip, Low-Res HDRip, и т.д.] Неудержимые 3 / The Expendables 3 (Патрик Хьюз / Patrick Hughes) [2014 г., боевик, триллер, приключения, ВDRip] [Teatrical Cut, Rus Transfer] Dub 90ytr90
5 | 0

0 | 507

13

22.11.2014 13:07

Зарубежное кино [DVDRip, Low-Res HDRip, и т.д.] Неудержимые 3 / The Expendables 3 (Патрик Хьюз / Patrick Hughes) [2014 г., боевик, триллер, приключения, BDRip] [Unrated Cut] Dub/AVO 90ytr90
46 | 1

0 | 486

13

31.01.2015 22:29

90ytr90 

07-Мар-2014 19:55

Цитата:

... Дубляж не полный, но это ещё пол беды, оригинальная английская дорога имеет прогрессирующий рассинхрон, то есть не лечится обычным сдвигом с нужным выставлением задержки, а требует ручного редактирования по семплам. Такой же рассинхрон по дороге с переводом Гаврилова. Единственная тут нормальная дорога без рассинхрона - это Володарский ...
T временная

ввиду косяков со звуком

Яндекс.Метрика powered by Sphinx


В Н И М А Н И Е
Сайт не распространяет и не хранит электронные версии произведений, а лишь бесплатно и без коммерческой выгоды (не требуя взамен платы,
SMS и т.д.) предоставляет доступ к создаваемому пользователями каталогу ссылок на торрент-файлы, которые содержат только списки хеш-сумм.
Убедительная просьба с жалобами обращаться напрямую к пользователю, разместившему торрент файл.

Вверх