Loading...
Error

Факультет / The Faculty (Роберт Родригес / Robert Rodriguez) [1998 г., ужасы, триллер, фантастика, BD Remux 1080p] [ESP] MVO (СТС), AVO (Гаврилов, Диктор CDV), Sub rus, eng + Original eng

Статистика раздачи
Размер:  22,95 GB   |    Зарегистрирован:  4 года 3 месяца   |    Скачан:  4 раза

Полного источника не было: 6 месяцев

Сидов:  0  |  0 KB/s  ]   Личеров:  0  |  0 KB/s  ]

* - сиды/пиры с внешних источников

   
 
Автор Сообщение

uzi2009 Пол:Муж

15-Фев-2014 20:28

Факультет / The Faculty


Год выпуска: 1998
Страна: США
Слоган: «And you thought YOUR teachers were weird...»

Жанр: ужасы, фантастика, триллер
Продолжительность: 01:44:29
Перевод: Авторский одноголосый закадровый, Профессиональный (многоголосый, закадровый)
Cубтитры: английские, русские
Оригинальная аудиодорожка: английский

Режиссер: Роберт Родригес / Robert Rodriguez
Сценарий: Кевин Уильямсон / Kevin Williamson, Дэвид Уэктер / David Wechter, Брюс Киммел / Bruce Kimmel
Продюсер: Элизабет Авеллан / Elizabeth Avellan, Роберт Родригес / Robert Rodriguez, Билл Скотт / Bill Scott, Тамара Смит / Tamara Smith, Боб Вайнштейн / Bob Weinstein
Оператор: Энрике Шедьяк / Enrique Chediak
Композитор: Марко Белтрами / Marco Beltrami

В ролях: Джош Хартнетт (Zeke Tyler), Элайджа Вуд (Casey Connor), Джордана Брюстер (Delilah Profitt), Клеа ДюВалл (Stokely 'Stokes' Mitchell), Лора Харрис (Marybeth Louise Hutchinson), Шон Хэтаси (Stan Rosado), Сальма Хайек (Nurse Rosa Harper), Фамке Янссен (Miss Elizabeth Burke), Пайпер Лори (Mrs. Karen Olson), Кристофер МакДональд (Mr. Frank Connor), Биби Нойуэрт (Principal Valerie Drake), Роберт Патрик (Coach Joe Willis)
Бюджет: $15 000 000
Маркетинг: $30 000 000
Сборы в США: $40 283 321

Мировая премьера: 12 ноября 1998
Описание: Колледж Хэррингтон давно утратил свою первозданность. Его обшарпанные коридоры ежедневно заполняет будущее Америки - одиночки и лидеры, пижоны и наркоманы, умники и кретины. Подобно подросткам везде и всюду, они ведут постоянную борьбу друг с другом.
Но однажды студенты делают ужасающее открытие: их преподаватели - пришельцы с другой планеты! Столкнувшись с вызовом, который они даже не могли себе вообразить, бывшие враги вынуждены объединиться, чтобы спастись от инопланетного вторжения…
Рейтинг
kinopoisk.ru: 7.464 (27 727)
imdb.com: 6.30 (46 395)
MPAA: R - Лицам до 17 лет обязательно присутствие взрослого
Тип релиза: BD Remux 1080p
Контейнер: MKV

Видео AVC 1920x1080p (16:9) 26970 kbps 23,976 fps
Аудио 1 English DTS-HD 5.1 2026 kbps 48 kHz (core DTS 5.1 1509 kbps 48 kHz)
Аудио 2 Russian DTS-HD 5.1 2033 kbps 48 kHz (core DTS 5.1 1509 kbps 48 kHz) Гаврилов
Аудио 3 Russian AC3 192 kbps 48 kHz 2.0 MVO СТС
Аудио 4 Russian AC3 192 kbps 48 kHz 2.0 диктор CDV
Формат субтитров: prerendered (Blu-ray/PGS/SUP), softsub (SRT)
Дополнительная информация
сравнение трансферов
В релизе использованы все доступные на момент варианты диска - видео от испанцев, аудио из канадского релиза (переделано в 16бит после оценки качества звука), pgs сабы из европейского и австралийского дисков. Русские стерео дороги перетянуты, подогнаны и почищены с самых ранних найденных вариантов. DVO R5, Живов и нечто с тагом "dvd.spb" c гланца - переводы про белого бычка, не вошло. на русских сабах я пару самых грубых промахов исправил, но мог что и пропустить
Вторая ревизия релиза, теперь Гаврилов сделан с голоса, большое спасибо sergey_n за этот самый голос. с дорожкой Гаврилова сделано очень много всего от синхронизации ручной расстановкой фраз до фикса косяков вроде "инопленетян".
  • В туалете можно заметить надпись «Tito and Tarantula». Данная группа написала часть музыки и сыграла в двух других картинах Родригеза – «Отчаянный» (1995) и «От заката до рассвета» (1996).
  • Мэрибет отказывается принимать наркотики, заявив, что у неё аллергия. На что Делайла (Джордана Брюстер) отвечает: «А я португалка». В реальной жизни Брюстер свободно говорит на португальском.
  • Джон Стюарт исполнил роль профессора Эдварда Ферлонга. Актера Эдварда Ферлонга, сыгравшего Джона Коннора в «Терминаторе 2: Судный день» (1991), преследовал Т-1000, в роли которого снялся Роберт Патрик, сыгравший в «Факультете» тренера Джо Уиллиса.
  • В сцене, где мы слышим объявление о том, что школьники должны пройти в учительскую, одного из них зовут Томми Никс. В реальной жизни Томми Никс – друг Роберта Родригеза со времен колледжа. Он помогал Роберту в написании сценария к «Гонщикам» (1994)
  • Машина Зика - 1970 Pontiac GTO.
  • Роль Делайлы была специально написана для Харизмы Карпентер, но актриса отвергла предложение, посчитав, что данный персонаж очень похож на её героиню в «Баффи – истребительнице вампиров» (1997).
  • Герои фильма одеты в одежду «Tommy Hilfiger». Актеры, сыгравшие главные роли, также появились в телевизионных роликах и печатной рекламе данного бренда.
pic pic pic pic pic
General
Unique ID : 202747742537882926306193387756119212307 (0x9887CB7B5BF58B788070C9D7F1AD4113)
Complete name : The Faculty.mkv
Format : Matroska
Format version : Version 2
File size : 22.9 GiB
Duration : 1h 44mn
Overall bit rate mode : Variable
Overall bit rate : 31.4 Mbps
Encoded date : UTC 2011-12-31 20:53:47
Writing application : mkvmerge v5.2.0 ('I can't explain') built on Dec 18 2011 18:12:03
Writing library : libebml v1.2.3 + libmatroska v1.3.0

Video
ID : 1
Format : AVC
Format/Info : Advanced Video Codec
Format profile : High@L4.1
Format settings, CABAC : Yes
Format settings, ReFrames : 4 frames
Codec ID : V_MPEG4/ISO/AVC
Duration : 1h 44mn
Bit rate mode : Variable
Bit rate : 27.2 Mbps
Maximum bit rate : 35.0 Mbps
Width : 1 920 pixels
Height : 1 080 pixels
Display aspect ratio : 16:9
Frame rate : 23.976 fps
Standard : NTSC
Color space : YUV
Chroma subsampling : 4:2:0
Bit depth : 8 bits
Scan type : Progressive
Bits/(Pixel*Frame) : 0.547
Stream size : 19.8 GiB (86%)
Default : Yes
Forced : No
Color primaries : BT.709-5, BT.1361, IEC 61966-2-4, SMPTE RP177
Transfer characteristics : BT.709-5, BT.1361
Matrix coefficients : BT.709-5, BT.1361, IEC 61966-2-4 709, SMPTE RP177

Audio #1
ID : 2
Format : DTS
Format/Info : Digital Theater Systems
Format profile : MA / Core
Codec ID : A_DTS
Duration : 1h 44mn
Bit rate mode : Variable
Bit rate : 1 579 Kbps / 1 510 Kbps
Channel(s) : 6 channels
Channel positions : Front: L C R, Side: L R, LFE
Sampling rate : 48.0 KHz
Bit depth : 16 bits
Compression mode : Lossless / Lossy
Title : DTS-HD MA 5.1 2026 kbps
Language : English
Default : No
Forced : No

Audio #2
ID : 3
Format : DTS
Format/Info : Digital Theater Systems
Format profile : MA / Core
Codec ID : A_DTS
Duration : 1h 44mn
Bit rate mode : Variable
Bit rate : 1 669 Kbps / 1 510 Kbps
Channel(s) : 6 channels
Channel positions : Front: L C R, Side: L R, LFE
Sampling rate : 48.0 KHz
Bit depth : 16 bits
Compression mode : Lossless / Lossy
Title : Гаврилов DTS-HD MA 5.1 2033 kbps
Language : Russian
Default : Yes
Forced : No

Audio #3
ID : 4
Format : AC-3
Format/Info : Audio Coding 3
Mode extension : CM (complete main)
Codec ID : A_AC3
Duration : 1h 44mn
Bit rate mode : Constant
Bit rate : 192 Kbps
Channel(s) : 2 channels
Channel positions : Front: L R
Sampling rate : 48.0 KHz
Bit depth : 16 bits
Compression mode : Lossy
Stream size : 143 MiB (1%)
Title : MVO СТС AC3 2.0 192 kbps
Language : Russian
Default : No
Forced : No

Audio #4
ID : 5
Format : AC-3
Format/Info : Audio Coding 3
Mode extension : CM (complete main)
Codec ID : A_AC3
Duration : 1h 44mn
Bit rate mode : Constant
Bit rate : 192 Kbps
Channel(s) : 2 channels
Channel positions : Front: L R
Sampling rate : 48.0 KHz
Bit depth : 16 bits
Compression mode : Lossy
Stream size : 143 MiB (1%)
Title : диктор CDV AC3 2.0 192 kbps
Language : Russian
Default : No
Forced : No

Text #1
ID : 6
Format : PGS
Muxing mode : zlib
Codec ID : S_HDMV/PGS
Codec ID/Info : The same subtitle format used on BDs/HD-DVDs
Title : PGS SDH Eur
Language : English
Default : No
Forced : No

Text #2
ID : 7
Format : PGS
Muxing mode : zlib
Codec ID : S_HDMV/PGS
Codec ID/Info : The same subtitle format used on BDs/HD-DVDs
Title : PGS SDH Au
Language : English
Default : No
Forced : No

Text #3
ID : 8
Format : UTF-8
Codec ID : S_TEXT/UTF8
Codec ID/Info : UTF-8 Plain Text
Language : English
Default : No
Forced : No

Text #4
ID : 9
Format : UTF-8
Codec ID : S_TEXT/UTF8
Codec ID/Info : UTF-8 Plain Text
Title : w. lyrics
Language : English
Default : No
Forced : No

Text #5
ID : 10
Format : UTF-8
Codec ID : S_TEXT/UTF8
Codec ID/Info : UTF-8 Plain Text
Language : Russian
Default : No
Forced : No

Этот торрент недоступен для скачивания без регистрации, однако доступен по публичной magnet-ссылке (источники с публичных трекеров). Перед использованием ссылки прочтите, пожалуйста Пользовательское соглашение, а также как можно дольше оставайтесь на раздаче! Для того, чтобы скачать сам торрент-файл (который видит больше источников), а также для того, чтобы поблагодарить релизера, вам необходимо зарегистрироваться. Если регистрироваться лень - вы можете также попробовать скачать релиз по нашим партнерским ссылкам ниже. Кроме того, зарегистрированным пользователям не показывается всплывающая реклама при скачивании.

[underverse.su].t36365.torrent
Трекер: Зарегистрирован   [ 15.02.2014 20:28 ]  

Статус: проверено (by garry at 15.02.2014 22:27)
Поблагодарили: пока никто не поблагодарил...
Тип торрента: публичный - доступные источники с открытых трекеров: 
Размер: 22,95 GB (занимает 5,24 DVDR, для записи нужно 6 болванок DVDR/RW)
 
 
Похожие темы
Форум Тема Автор Торрент Отв. Посл. сооб.
Зарубежное кино [HDDVDRip / BDRip / WEB-DL / HDTV 1080/720р] Факультет / The Faculty (Роберт Родригес) [1998 г., Ужасы, Фантастика, Триллер, BDRip 720p] DVO (RUS) + 2-AVO (RUS, А. Гаврилов / Ю. Живов) + VO (RUS, CDV) + DVO (UKR, Новый канал) + Original (ENG) +... Ведьмочка
0 | 0

0 | 723

3

12.10.2014 21:55

Зарубежное кино [HDDVDRip / BDRip / WEB-DL / HDTV 1080/720р] Факультет / The Faculty (Роберт Родригес) [1998 г., Ужасы, Фантастика, Триллер, BDRip 1080p] MVO (RUS, СТС) + AVO (RUS, А. Гаврилов) + VO (RUS, CDV) + Original (ENG) + Subs (RUS, ENG) Ведьмочка
9 | 0

0 | 791

9

12.10.2014 22:05


Яндекс.Метрика powered by Sphinx


В Н И М А Н И Е
Сайт не распространяет и не хранит электронные версии произведений, а лишь бесплатно и без коммерческой выгоды (не требуя взамен платы,
SMS и т.д.) предоставляет доступ к создаваемому пользователями каталогу ссылок на торрент-файлы, которые содержат только списки хеш-сумм.
Убедительная просьба с жалобами обращаться напрямую к пользователю, разместившему торрент файл.

Вверх