Loading...
Error

Троя / Troy (Вольфганг Петерсен / Wolfgang Petersen) [2004, США, Великобритания, Мальта. Боевик, мелодрама, драма, история. BDRemux 1080p] [Director's Cut]

Статистика раздачи
Размер:  24,17 GB   |    Зарегистрирован:  4 года 3 месяца   |    Скачан:  21 раз

Полного источника не было: 28 дней

Сидов:  0  |  0 KB/s  ]   Личеров:  0  |  0 KB/s  ]

* - сиды/пиры с внешних источников

   
 
Автор Сообщение

uzi2009 Пол:Муж

30-Янв-2014 21:47

Троя / Troy [Director's Cut]

Страна: США, Великобритания, Мальта
Жанр: Боевик, мелодрама, драма, история
Год выпуска: 2004
Продолжительность: 03:16:03
Перевод 1: Профессиональный (многоголосый закадровый) (П. Гланц и И. Королева)
Перевод 2: Профессиональный (многоголосый закадровый) (Киномания)
Перевод 3: Профессиональный (одноголосый закадровый) (Рябов)
Перевод 4: Профессиональный (одноголосый закадровый) (Гаврилов)
Русские субтитры: есть
Формат субтитров: srt
Оригинальная аудиодорожка: Английская
Режиссёр: Вольфганг Петерсен / Wolfgang Petersen
В ролях: Джулиан Гловер, Брайан Кокс, Натан Джонс, Адони Маропис, Джейкоб Смит, Брэд Питт, Джон Шрэпнел, Брендан Глисон, Дайан Крюгер, Эрик Бана, Орландо Блум, Сири Свеглер, Люси Барат, Кен Бонс, Мануэль Коши, Марк Льюис Джонс, Гаррет Хедлунд, Шон Бин, Джули Кристи, Питер О`Тул, Джеймс Космо
Описание: 1193 год до нашей эры. Наследник престола Трои Парис украл прекрасную Елену, жену царя Спарты Менелая. За честь Менелая вступается его брат — царь Агамемнон. Его армия под предводительством Ахиллеса подошла к Трое и взяла город в кровавую осаду, длившуюся долгих десять лет… Два мира будут воевать за честь и власть. Тысячи умрут за славу. И за любовь нация сгорит дотла.

Доп. информация: За Гланца в dts-hd спасибо Panas
Тип релиза: BDRemux
Контейнер: MKV
Видео: VC-1 / 11775 kbps / 1920x1080p / 23,976 fps / 16:9 / Advanced Profile 3
Аудио 1: Русский П. Гланц и И. Королева / DTS-HD / 5.1 / 48 kHz / 2270 kbps / 16-bit (DTS Core: 5.1 / 48 kHz / 1510 kbps / 16-bit)
Аудио 2: Русский Киномания / Dolby Digital / 5.1 / 48 kHz / 448 kbps
Аудио 3: Русский Гаврилов / Dolby Digital / 5.1 / 48 kHz / 448 kbps
Аудио 4: Русский Рябов / Dolby Digital / 5.1 / 48 kHz / 448 kbps
Аудио 5: English / DTS-HD / 5.1 / 48 kHz / 2255 kbps / 16-bit (DTS Core: 5.1 / 48 kHz / 1510 kbps / 16-bit)
Субитры 1: Русские
Субитры 2: Английские
Чаптеры: 45 шт.
pic pic pic pic pic


Код:

Полное имя                       : Troy.Director's.Cut.2004.Blu-ray.1080p.VC-1.Rus.Eng.mkv
Формат                           : Matroska
Размер файла                     : 24,2 Гбайт
Продолжительность                : 3 ч. 16 м.
Общий поток                      : 17,7 Мбит/сек
Название фильма                  : HANSMER
Дата кодирования                 : UTC 2011-01-16 14:43:54
Программа кодирования            : mkvmerge v4.4.0 ('Die Wiederkehr') сборка от Oct 31 2010 21:52:48
Библиотека кодирования           : libebml v1.0.0 + libmatroska v1.0.0

Видео
Идентификатор                    : 1
Формат                           : VC-1
Профиль формата                  : AP@L3
Идентификатор кодека             : WVC1
Идентификатор кодека/Подсказка   : Microsoft
Продолжительность                : 3 ч. 16 м.
Битрейт                          : 12,3 Мбит/сек
Ширина                           : 1920 пикс.
Высота                           : 1080 пикс.
Соотношение сторон               : 16:9
Частота кадров                   : 23,976 кадр/сек
Подвыборка цветности             : 4:2:0
Битовая глубина                  : 8 бит
Тип развёртки                    : Прогрессивная
Метод сжатия                     : С потерями
Бит/(Пиксели*Кадры)              : 0.248
Размер потока                    : 16,9 Гбайт (70%)
Заголовок                        : 11775 kbps
Язык                             : English

Аудио #1
Идентификатор                    : 2
Формат                           : DTS
Формат/Информация                : Digital Theater Systems
Профиль формата                  : MA / Core
Идентификатор кодека             : A_DTS
Продолжительность                : 3 ч. 16 м.
Вид битрейта                     : Переменный
Битрейт                          : 2074 Кбит/сек / 1510 Кбит/сек
Канал(ы)                         : 6 канала(ов)
Расположение каналов             : Front: L C R, Side: L R, LFE
Частота                          : 48,0 КГц
Битовая глубина                  : 16 бит
Метод сжатия                     : Без потерь / Lossy
Заголовок                        : Glanz & Koroleva DTS-HD MA 5.1 @ 2271 kbps
Язык                             : Russian

Аудио #2
Идентификатор                    : 3
Формат                           : AC-3
Формат/Информация                : Audio Coding 3
Расширение режима                : CM (complete main)
Идентификатор кодека             : A_AC3
Продолжительность                : 3 ч. 16 м.
Вид битрейта                     : Постоянный
Битрейт                          : 448 Кбит/сек
Канал(ы)                         : 6 канала(ов)
Расположение каналов             : Front: L C R, Side: L R, LFE
Частота                          : 48,0 КГц
Битовая глубина                  : 16 бит
Метод сжатия                     : С потерями
Размер потока                    : 628 Мбайт (3%)
Заголовок                        : Kinomanija
Язык                             : Russian

Аудио #3
Идентификатор                    : 4
Формат                           : AC-3
Формат/Информация                : Audio Coding 3
Расширение режима                : CM (complete main)
Идентификатор кодека             : A_AC3
Продолжительность                : 3 ч. 16 м.
Вид битрейта                     : Постоянный
Битрейт                          : 448 Кбит/сек
Канал(ы)                         : 6 канала(ов)
Расположение каналов             : Front: L C R, Side: L R, LFE
Частота                          : 48,0 КГц
Битовая глубина                  : 16 бит
Метод сжатия                     : С потерями
Размер потока                    : 628 Мбайт (3%)
Заголовок                        : Gavrilov
Язык                             : Russian

Аудио #4
Идентификатор                    : 5
Формат                           : AC-3
Формат/Информация                : Audio Coding 3
Расширение режима                : CM (complete main)
Идентификатор кодека             : A_AC3
Продолжительность                : 3 ч. 16 м.
Вид битрейта                     : Постоянный
Битрейт                          : 448 Кбит/сек
Канал(ы)                         : 6 канала(ов)
Расположение каналов             : Front: L C R, Side: L R, LFE
Частота                          : 48,0 КГц
Битовая глубина                  : 16 бит
Метод сжатия                     : С потерями
Размер потока                    : 628 Мбайт (3%)
Заголовок                        : Rjabov
Язык                             : Russian

Аудио #5
Идентификатор                    : 6
Формат                           : DTS
Формат/Информация                : Digital Theater Systems
Профиль формата                  : MA / Core
Идентификатор кодека             : A_DTS
Продолжительность                : 3 ч. 16 м.
Вид битрейта                     : Переменный
Битрейт                          : 1561 Кбит/сек / 1510 Кбит/сек
Канал(ы)                         : 6 канала(ов)
Расположение каналов             : Front: L C R, Side: L R, LFE
Частота                          : 48,0 КГц
Битовая глубина                  : 16 бит
Метод сжатия                     : Без потерь / Lossy
Заголовок                        : DTS-HD MA 5.1 @ 2256 kbps
Язык                             : English

Текст #1
Идентификатор                    : 7
Формат                           : UTF-8
Идентификатор кодека             : S_TEXT/UTF8
Идентификатор кодека/Информация  : UTF-8 Plain Text
Язык                             : Russian

Текст #2
Идентификатор                    : 8
Формат                           : UTF-8
Идентификатор кодека             : S_TEXT/UTF8
Идентификатор кодека/Информация  : UTF-8 Plain Text
Язык                             : English

Меню
00:00:00.000                     : en:Foreword
00:01:30.090                     : en:Awaiting Achilles
00:08:16.329                     : en:"Is There No One Else?"
00:11:06.332                     : en:Secret Lovers
00:18:22.101                     : en:Brothers' Pledges
00:25:33.365                     : en:Greatest War
00:27:41.493                     : en:Recruiter Odysseus
00:33:23.335                     : en:Glory and Doom
00:36:39.864                     : en:Royal Welcome
00:40:01.566                     : en:They're Coming for Me
00:44:50.187                     : en:Immortality Is Yours
00:52:32.316                     : en:Beach Combat
00:58:00.143                     : en:Too Early in the Day
01:03:48.992                     : en:No Need to Fear
01:07:41.224                     : en:Spoils of War
01:12:36.352                     : en:The Way I Love Helen
01:17:55.838                     : en:Power, Not Love
01:21:31.720                     : en:Soldiers Obey
01:23:55.864                     : en:Gathering Forces
01:28:49.324                     : en:Brave Offer
01:32:23.371                     : en:Paris vs. Menelaus
01:36:58.146                     : en:Battle Cry
01:41:39.093                     : en:Greek Retreat
01:44:56.957                     : en:Weak Morale
01:48:15.322                     : en:Everyone Dies
01:54:20.687                     : en:Born for This War
01:57:26.039                     : en:Priam's Order
02:00:05.698                     : en:Flaming Attack
02:03:47.086                     : en:Hector's Adversary
02:08:40.212                     : en:Tragic Mistake
02:10:42.668                     : en:Night of Torments
02:15:10.436                     : en:Summoned to Fight
02:20:47.773                     : en:Now You Know
02:23:08.246                     : en:Hector vs. Achilles
02:26:25.110                     : en:Desecrating the Dead
02:28:29.734                     : en:A Father's Plea
02:34:48.446                     : en:Achilles' Word
02:37:28.939                     : en:Inspirations and Honors
02:41:20.170                     : en:Parting Gift
02:45:40.764                     : en:Troy Under Siege
02:51:09.759                     : en:We Will Be Together
02:55:39.028                     : en:Royal Bloodshed
02:58:42.712                     : en:Brought to Hell
03:02:24.433                     : en:I Walked With Giants
03:05:12.601                     : en:End Credits

Этот торрент недоступен для скачивания без регистрации, однако доступен по публичной magnet-ссылке (источники с публичных трекеров). Перед использованием ссылки прочтите, пожалуйста Пользовательское соглашение, а также как можно дольше оставайтесь на раздаче! Для того, чтобы скачать сам торрент-файл (который видит больше источников), а также для того, чтобы поблагодарить релизера, вам необходимо зарегистрироваться. Если регистрироваться лень - вы можете также попробовать скачать релиз по нашим партнерским ссылкам ниже. Кроме того, зарегистрированным пользователям не показывается всплывающая реклама при скачивании.

[underverse.su].t35848.torrent
Трекер: Зарегистрирован   [ 30.01.2014 21:47 ]  

Статус: проверено (by garry at 01.02.2014 11:40)
Поблагодарили: 3 человека
Тип торрента: публичный - доступные источники с открытых трекеров: 
Размер: 24,17 GB (занимает 5,52 DVDR, для записи нужно 6 болванок DVDR/RW)
 
 
Похожие темы
Форум Тема Автор Торрент Отв. Посл. сооб.
Архив (HQ Underverse) Троя / Troy (режиссерская версия) (Вольфганг Петерсен) [2004 г., боевик, мелодрама, история, BDRip] Паукан
0 | 0

2 | 1602

9

17.02.2011 14:46


Яндекс.Метрика powered by Sphinx


В Н И М А Н И Е
Сайт не распространяет и не хранит электронные версии произведений, а лишь бесплатно и без коммерческой выгоды (не требуя взамен платы,
SMS и т.д.) предоставляет доступ к создаваемому пользователями каталогу ссылок на торрент-файлы, которые содержат только списки хеш-сумм.
Убедительная просьба с жалобами обращаться напрямую к пользователю, разместившему торрент файл.

Вверх