Loading...
Error

Анаконда / Anaconda (Луис Ллоса / Luis Llosa) [1997, ужасы, триллер, приключения, боевик, BDRemux 1080p] Dub + MVO + 4 AVO + Original Eng + Subs (rus, eng)

 
Автор Сообщение

uzi2009 Пол:Муж

21-Янв-2014 11:33

Анаконда / Anaconda

Страна: США
Жанр: ужасы, триллер, приключения, боевик
Год выпуска: 1997
Продолжительность: 01:29:20

Перевод: Профессиональный (дублированный)
+ Профессиональный (многоголосый закадровый)
+ Авторский (одноголосый) (Антонов)
+ Авторский (одноголосый) (Гаврилов)
+ Авторский (одноголосый) (Живов)
+ Авторский (одноголосый) (Хрусталев)
+ Оригинал
Cубтитры: русские, английские
Режиссер: Луис Ллоса / Luis Llosa
В ролях: Дженнифер Лопез, Айс Кьюб, Джон Войт, Эрик Столц, Джонатан Хайд, Оуэн Уилсон, Кари Вурер, Винсент Кастелланос, Дэнни Трехо, Фрэнк Уэлкер
Описание: Команда исследователей отправляется на поиски зетерянных индийских племен в самое сердце таинственных джунглей Амазонки. Наслаждаясь пейзажами великой реки, они не подозревают, что их проводник — сумасшедший охотник, помешавшийся на идее поймать гигантскую змею.

Никто не верит его расказам о мистическом хищнике, пока не появляется первая жертва, и их путешествие превращается в борьбу за выживание. Анаконда не ждет охотников, она сама — охотник.
Дорожки №4,5,6 получены наложением чистого голоса на центр декодированного TrueHD
За чистый голос Гаврилова большое спасибо dunhill200
Семпл: Anaconda.BDRemux.1080p.AVC.DTSHD.MA.Rus.Eng-sempl.mkv
Тип релиза: BDRemux 1080p
Контейнер: MKV

Видео: 1920x1080p, 23.976 fps, AVC, 25774 kbps
Аудио 1: AC3, 6 ch, 640 kbps, 48 kHz |Дубляж|
Аудио 2: AC3, 2 ch, 192 kbps, 48 kHz |Многоголосый|
Аудио 3: AC3, 2 ch, 192 kbps, 48 kHz |Антонов|
Аудио 4: DTS HD MA, 6 ch, 4505 kbps, 48 kHz, 24 bit (core DTS, 6 ch, 1510 kbps, 48 kHz, 24 bit) |Гаврилов|
Аудио 5: DTS HD MA, 6 ch, 4489 kbps, 48 kHz, 24 bit (core DTS, 6 ch, 1510 kbps, 48 kHz, 24 bit) |Живов|
Аудио 6: DTS HD MA, 6 ch, 4480 kbps, 48 kHz, 24 bit (core DTS, 6 ch, 1510 kbps, 48 kHz, 24 bit) |Хрусталев|
Аудио 7: DTS HD MA, 6 ch, 4504 kbps, 48 kHz, 24 bit (core DTS, 6 ch, 1510 kbps, 48 kHz, 24 bit) |Original|
[/size]


General
Complete name : C:\Anaconda.BDRemux.1080p.AVC.DTSHD.MA.Rus.Eng.mkv
Format : Matroska
Format version : Version 2
File size : 27.9 GiB
Duration : 1h 29mn
Overall bit rate mode : Variable
Overall bit rate : 44.8 Mbps
Encoded date : UTC 2012-02-24 06:36:33
Writing application : mkvmerge v5.2.1 ('A Far Off Place') built on Jan 2 2012 23:21:10
Writing library : libebml v1.2.3 + libmatroska v1.3.0

Video
ID : 1
Format : AVC
Format/Info : Advanced Video Codec
Format profile : High@L4.1
Format settings, CABAC : Yes
Format settings, ReFrames : 2 frames
Codec ID : V_MPEG4/ISO/AVC
Duration : 1h 29mn
Bit rate mode : Variable
Bit rate : 31.1 Mbps
Width : 1 920 pixels
Height : 1 080 pixels
Display aspect ratio : 16:9
Frame rate : 23.976 fps
Color space : YUV
Chroma subsampling : 4:2:0
Bit depth : 8 bits
Scan type : Progressive
Bits/(Pixel*Frame) : 0.626
Stream size : 19.4 GiB (69%)
Default : Yes
Forced : No

Audio #1
ID : 2
Format : AC-3
Format/Info : Audio Coding 3
Mode extension : CM (complete main)
Codec ID : A_AC3
Duration : 1h 29mn
Bit rate mode : Constant
Bit rate : 640 Kbps
Channel(s) : 6 channels
Channel positions : Front: L C R, Side: L R, LFE
Sampling rate : 48.0 KHz
Bit depth : 16 bits
Compression mode : Lossy
Stream size : 409 MiB (1%)
Title : Дубляж
Language : Russian
Default : Yes
Forced : No

Audio #2
ID : 3
Format : AC-3
Format/Info : Audio Coding 3
Format profile : Dolby Digital
Mode extension : CM (complete main)
Codec ID : A_AC3
Duration : 1h 29mn
Bit rate mode : Constant
Bit rate : 192 Kbps
Channel(s) : 2 channels
Channel positions : Front: L R
Sampling rate : 48.0 KHz
Bit depth : 16 bits
Compression mode : Lossy
Stream size : 123 MiB (0%)
Title : MVO
Language : Russian
Default : No
Forced : No

Audio #3
ID : 4
Format : AC-3
Format/Info : Audio Coding 3
Format profile : Dolby Digital
Mode extension : CM (complete main)
Codec ID : A_AC3
Duration : 1h 29mn
Bit rate mode : Constant
Bit rate : 192 Kbps
Channel(s) : 2 channels
Channel positions : Front: L R
Sampling rate : 48.0 KHz
Bit depth : 16 bits
Compression mode : Lossy
Stream size : 123 MiB (0%)
Title : Антонов
Language : Russian
Default : No
Forced : No

Audio #4
ID : 5
Format : DTS
Format/Info : Digital Theater Systems
Format profile : MA / Core
Codec ID : A_DTS
Duration : 1h 29mn
Bit rate mode : Variable
Bit rate : 2 965 Kbps / 1 510 Kbps
Channel(s) : 6 channels
Channel positions : Front: L C R, Side: L R, LFE
Sampling rate : 48.0 KHz
Bit depth : 24 bits
Compression mode : Lossless / Lossy
Title : Гаврилов
Language : Russian
Default : No
Forced : No

Audio #5
ID : 6
Format : DTS
Format/Info : Digital Theater Systems
Format profile : MA / Core
Codec ID : A_DTS
Duration : 1h 29mn
Bit rate mode : Variable
Bit rate : 2 941 Kbps / 1 510 Kbps
Channel(s) : 6 channels
Channel positions : Front: L C R, Side: L R, LFE
Sampling rate : 48.0 KHz
Bit depth : 24 bits
Compression mode : Lossless / Lossy
Title : Живов
Language : Russian
Default : No
Forced : No

Audio #6
ID : 7
Format : DTS
Format/Info : Digital Theater Systems
Format profile : MA / Core
Codec ID : A_DTS
Duration : 1h 29mn
Bit rate mode : Variable
Bit rate : 2 944 Kbps / 1 510 Kbps
Channel(s) : 6 channels
Channel positions : Front: L C R, Side: L R, LFE
Sampling rate : 48.0 KHz
Bit depth : 24 bits
Compression mode : Lossless / Lossy
Title : Хрусталев
Language : Russian
Default : No
Forced : No

Audio #7
ID : 8
Format : DTS
Format/Info : Digital Theater Systems
Format profile : MA / Core
Codec ID : A_DTS
Duration : 1h 29mn
Bit rate mode : Variable
Bit rate : 2 923 Kbps / 1 510 Kbps
Channel(s) : 6 channels
Channel positions : Front: L C R, Side: L R, LFE
Sampling rate : 48.0 KHz
Bit depth : 24 bits
Compression mode : Lossless / Lossy
Title : Оригинал
Language : English
Default : No
Forced : No

Text #1
ID : 9
Format : UTF-8
Codec ID : S_TEXT/UTF8
Codec ID/Info : UTF-8 Plain Text
Title : Русские (полные)
Language : Russian
Default : Yes
Forced : No

Text #2
ID : 10
Format : UTF-8
Codec ID : S_TEXT/UTF8
Codec ID/Info : UTF-8 Plain Text
Title : Русские (forced)
Language : Russian
Default : No
Forced : No

Text #3
ID : 11
Format : UTF-8
Codec ID : S_TEXT/UTF8
Codec ID/Info : UTF-8 Plain Text
Title : Английские
Language : English
Default : No
Forced : No

Menu
00:00:00.000 : en:00:00:00.000
00:04:32.898 : en:00:04:32.898
00:11:48.166 : en:00:11:48.166
00:19:30.795 : en:00:19:30.795
00:25:17.516 : en:00:25:17.516
00:30:51.767 : en:00:30:51.767
00:37:24.451 : en:00:37:24.451
00:39:08.179 : en:00:39:08.179
00:49:12.783 : en:00:49:12.783
00:54:21.341 : en:00:54:21.341
00:59:44.331 : en:00:59:44.331
01:04:41.628 : en:01:04:41.628
01:11:22.737 : en:01:11:22.737
01:15:52.548 : en:01:15:52.548
01:19:48.450 : en:01:19:48.450
01:22:53.343 : en:01:22:53.343
pic pic pic pic pic
[underverse.su].t35485.torrent
Трекер: Не зарегистрирован

Скачать

140 KB

Добавлен: 21.01.2014 11:25
Скачано: 0 раз  [ Список скачавших ]
   
 

24-Май-2018 22:41

Топик был перенесен из форума Зарубежное кино [DVD / HDDVD / BD / Remux] в форум Мусорка


[cron robot]
 

Яндекс.Метрика powered by Sphinx


В Н И М А Н И Е
Сайт не распространяет и не хранит электронные версии произведений, а лишь бесплатно и без коммерческой выгоды (не требуя взамен платы,
SMS и т.д.) предоставляет доступ к создаваемому пользователями каталогу ссылок на торрент-файлы, которые содержат только списки хеш-сумм.
Убедительная просьба с жалобами обращаться напрямую к пользователю, разместившему торрент файл.

Вверх