Loading...
Error

Друзья / Friends / Сезон 10 / Серии 1-18 из 18 ( David Crane, Marta Kauffman)[2004, комедия, BDRip] MVO (РТР-ТНТ)

 
Автор Сообщение

evropium Пол:Муж

19-Янв-2014 11:38

Друзья / Friends / Сезон 10 / Серии 1-18 из 18


Год выпуска: 2004
Жанр: комедия
Страна: США
Режиссер: David Crane, Marta Kauffman
В ролях: Дженнифер Энистон, Кортни Кокс-Аркет, Лиза Кудроу, Мэтт ЛеБлан, Мэттью Перри, Дэвид Швиммер
Сюжет фильма:
Шесть героев – три очаровательные девушки, и трое симпатичных молодых людей – закадычные друзья.
И вокруг этой крепкой компании строится бесконечное количество разных историй:
у друзей случаются романы, они ссорятся и мирятся. Но молодежь не может быть до конца серьезной,
так что друзья не упускают случая пошутить, а чувство юмора у них отменное.

Качество видео: BDRip

Продолжительность: ~ 00:23:00 серии
Формат: AVI
Видео: XviD, 720x400, 1 472 kbps
Аудио: русский, многоголосый закадровый [профессиональный], MP3 2.0, 128kbps

Код:

rall bit rate mode          : Variable
Overall bit rate               : 1 515 Kbps
Writing library                : VirtualDub build 35486/release

Video
ID                             : 0
Format                         : xvid
Codec ID                       : xvid
Duration                       : 22mn 56s
Bit rate                       : 1 417 Kbps
Width                          : 720 pixels
Height                         : 400 pixels
Display aspect ratio           : 16:9
Frame rate                     : 23.976 fps
Bits/(Pixel*Frame)             : 0.205
Stream size                    : 232 MiB (94%)

Audio
ID                             : 1
Format                         : MPEG Audio
Format version                 : Version 1
Format profile                 : Layer 3
Mode                           : Joint stereo
Mode extension                 : MS Stereo
Codec ID                       : 55
Codec ID/Hint                  : MP3
Duration                       : 22mn 56s
Bit rate mode                  : Variable
Bit rate                       : 85.9 Kbps
Minimum bit rate               : 32.0 Kbps
Channel(s)                     : 2 channels
Sampling rate                  : 44.1 KHz
Compression mode               : Lossy
Stream size                    : 14.1 MiB (6%)
Alignment                      : Aligned on interleaves
Interleave, duration           : 26 ms (0.63 video frame)
Interleave, preload duration   : 397 ms
Writing library                : LAME3.98r
Encoding settings              : -m j -V 5 -q 5 -lowpass 16.5 --vbr-new -b 32

Семпл: http://multi-up.com/931924

picpicpicpic
Для увеличения картинки щелкните мышкой по превью
Начальные титры с озвучкой ТНТ
Похожие темы
Форум Тема Автор Торрент Отв. Посл. сооб.
% Зарубежные сериалы Друзья / Friends / Сезон 9 / Серии 1-24 из 24 (David Crane, Marta Kauffman) [2003, Комедия, BDRip] MVO (РТР) evropium
0 | 0

0 | 2006

12

12.12.2013 20:07

TV Series Друзья / Friends / Season 1-10 (David Crane, Marta Kauffman) [1994-2004 г., Комедия, DVDRip] Mahone
0 | 0

9 | 5091

0

10.09.2012 10:46

% Архив (Сериалы) Друзья / Friends / Сезон 6 / Серии 1-24 из 24 (David Crane, Marta Kauffman) [2000, Комедия, BDRip] MVO (РТР) evropium
0 | 0

17 | 2839

10

31.01.2018 16:58

% Архив (Сериалы) Друзья / Friends / Сезон 7 / Серии 1-24 из 24 (David Crane, Marta Kauffman) [2001, Комедия, BDRip] MVO (РТР) evropium
0 | 0

2 | 2052

14

31.01.2018 16:58

Архив (Сериалы) Друзья / Friends / Сезон 8 / Серии 1-24 из 24 (David Crane, Marta Kauffman) [2002, Комедия, BDRip] MVO (РТР) evropium
0 | 0

3 | 2178

12

31.01.2018 16:58


Яндекс.Метрика powered by Sphinx


В Н И М А Н И Е
Сайт не распространяет и не хранит электронные версии произведений, а лишь бесплатно и без коммерческой выгоды (не требуя взамен платы,
SMS и т.д.) предоставляет доступ к создаваемому пользователями каталогу ссылок на торрент-файлы, которые содержат только списки хеш-сумм.
Убедительная просьба с жалобами обращаться напрямую к пользователю, разместившему торрент файл.

Вверх