Loading...
Error

(R'n'B, Soul) Marlon Roudette - Matter Fixed (2011) [FLAC (Tracks+.CUE), Lossless]

Статистика раздачи
Размер:  286 MB   |    Зарегистрирован:  3 года 10 месяцев   |    Скачан:  3 раза

Полного источника не было: 2 дня 13 часов

Сидов:  0  |  0 KB/s  ]   Личеров:  0  |  0 KB/s  ]

* - сиды/пиры с внешних источников

   
 
Автор Сообщение

Бишеп Пол:Муж

11-Янв-2014 14:47

Marlon Roudette - Matter Fixed

Жанр: R'n'B, Soul
Год выпуска: 2011
Производитель диска: Universal Music - 0602527761015
Аудиокодек: FLAC
Тип рипа: Tracks+.CUE
Битрейт аудио: Lossless
Продолжительность: 00:47:10
Треклист:
01. Storyline
02. New Age
03. Hold On Me
04. Brotherhood Of The Broken
05. Didn't I
06. True To Yourself (feat. Finley Quaye)
07. Riding Home
08. 10 Million
09. Anti Hero
10. The Loss
11. Closer (feat. Lucy Leston)
12. City Like This

Exact Audio Copy V1.0 beta 3 from 29. August 2011

EAC extraction logfile from 29. December 2011, 1:56

Marlon Roudette / Matter Fixed

Used drive : hp CDDVDW TS-L633N Adapter: 1 ID: 0

Read mode : Secure
Utilize accurate stream : Yes
Defeat audio cache : Yes
Make use of C2 pointers : No

Read offset correction : 6
Overread into Lead-In and Lead-Out : No
Fill up missing offset samples with silence : Yes
Delete leading and trailing silent blocks : No
Null samples used in CRC calculations : Yes
Used interface : Native Win32 interface for Win NT & 2000
Gap handling : Appended to previous track

Used output format : User Defined Encoder
Selected bitrate : 128 kBit/s
Quality : High
Add ID3 tag : No
Command line compressor : C:\Program Files (x86)\FLAC\flac.exe
Additional command line options : -V -8 -T "Genre=%genre%" -T "Artist=%artist%" -T "Title=%title%" -T "Album=%albumtitle%" -T "Date=%year%" -T "Tracknumber=%tracknr%" -T "Comment=%comment%" %source%

TOC of the extracted CD

Track | Start | Length | Start sector | End sector
---------------------------------------------------------
1 | 0:00.00 | 4:52.31 | 0 | 21930
2 | 4:52.31 | 3:33.27 | 21931 | 37932
3 | 8:25.58 | 3:49.14 | 37933 | 55121
4 | 12:14.72 | 4:05.55 | 55122 | 73551
5 | 16:20.52 | 3:48.15 | 73552 | 90666
6 | 20:08.67 | 3:41.48 | 90667 | 107289
7 | 23:50.40 | 4:05.73 | 107290 | 125737
8 | 27:56.38 | 3:47.50 | 125738 | 142812
9 | 31:44.13 | 3:48.32 | 142813 | 159944
10 | 35:32.45 | 3:32.36 | 159945 | 175880
11 | 39:05.06 | 4:15.61 | 175881 | 195066
12 | 43:20.67 | 3:49.37 | 195067 | 212278

Track 1

Filename C:\Users\Иван\Desktop\Новая папка (2)\01. Storyline.wav

Pre-gap length 0:00:02.00

Peak level 99.9 %
Extraction speed 2.2 X
Track quality 100.0 %
Test CRC 0C9BE0E9
Copy CRC 0C9BE0E9
Accurately ripped (confidence 2) [9DB50B9F] (AR v2)
Copy OK

Track 2

Filename C:\Users\Иван\Desktop\Новая папка (2)\02. New Age.wav

Pre-gap length 0:00:01.73

Peak level 98.7 %
Extraction speed 2.4 X
Track quality 100.0 %
Test CRC 6A75E39E
Copy CRC 6A75E39E
Accurately ripped (confidence 2) [7C01C221] (AR v2)
Copy OK

Track 3

Filename C:\Users\Иван\Desktop\Новая папка (2)\03. Hold On Me.wav

Pre-gap length 0:00:01.73

Peak level 96.5 %
Extraction speed 2.6 X
Track quality 100.0 %
Test CRC 0F8ABF8E
Copy CRC 0F8ABF8E
Accurately ripped (confidence 2) [FDCBADC1] (AR v2)
Copy OK

Track 4

Filename C:\Users\Иван\Desktop\Новая папка (2)\04. Brotherhood of the Broken.wav

Pre-gap length 0:00:01.73

Peak level 99.9 %
Extraction speed 2.8 X
Track quality 100.0 %
Test CRC 0EDF5798
Copy CRC 0EDF5798
Accurately ripped (confidence 2) [BA21372C] (AR v2)
Copy OK

Track 5

Filename C:\Users\Иван\Desktop\Новая папка (2)\05. Didn't I.wav

Pre-gap length 0:00:01.58

Peak level 96.5 %
Extraction speed 3.0 X
Track quality 100.0 %
Test CRC 0D264108
Copy CRC 0D264108
Accurately ripped (confidence 2) [CB717C8C] (AR v2)
Copy OK

Track 6

Filename C:\Users\Иван\Desktop\Новая папка (2)\06. True to Yourself (feat. Finley Quaye).wav

Pre-gap length 0:00:01.73

Peak level 99.9 %
Extraction speed 3.1 X
Track quality 100.0 %
Test CRC 14F69989
Copy CRC 14F69989
Accurately ripped (confidence 2) [C59215F6] (AR v2)
Copy OK

Track 7

Filename C:\Users\Иван\Desktop\Новая папка (2)\07. Riding Home.wav

Pre-gap length 0:00:01.73

Peak level 98.7 %
Extraction speed 3.3 X
Track quality 100.0 %
Test CRC 15206563
Copy CRC 15206563
Accurately ripped (confidence 2) [063E0A1E] (AR v2)
Copy OK

Track 8

Filename C:\Users\Иван\Desktop\Новая папка (2)\08. 10 Million.wav

Pre-gap length 0:00:01.73

Peak level 96.5 %
Extraction speed 3.4 X
Track quality 100.0 %
Test CRC 0882B530
Copy CRC 0882B530
Accurately ripped (confidence 2) [F7D4C765] (AR v2)
Copy OK

Track 9

Filename C:\Users\Иван\Desktop\Новая папка (2)\09. Anti Hero.wav

Pre-gap length 0:00:01.73

Peak level 99.9 %
Extraction speed 3.1 X
Track quality 99.9 %
Test CRC F42DC2AF
Copy CRC F42DC2AF
Accurately ripped (confidence 2) [DEE3CBB8] (AR v2)
Copy OK

Track 10

Filename C:\Users\Иван\Desktop\Новая папка (2)\10. The Loss.wav

Pre-gap length 0:00:02.73

Peak level 92.1 %
Extraction speed 3.1 X
Track quality 99.9 %
Test CRC 05A83CEB
Copy CRC 05A83CEB
Accurately ripped (confidence 2) [D2164C6C] (AR v2)
Copy OK

Track 11

Filename C:\Users\Иван\Desktop\Новая папка (2)\11. Closer (feat. Lucy Leston).wav

Pre-gap length 0:00:03.73

Peak level 98.7 %
Extraction speed 3.9 X
Track quality 100.0 %
Test CRC A9BB66DD
Copy CRC A9BB66DD
Accurately ripped (confidence 2) [0AAD86E7] (AR v2)
Copy OK

Track 12

Filename C:\Users\Иван\Desktop\Новая папка (2)\12. City Like This.wav

Pre-gap length 0:00:02.21

Peak level 99.9 %
Extraction speed 3.9 X
Track quality 100.0 %
Test CRC EF9DD6EC
Copy CRC EF9DD6EC
Accurately ripped (confidence 2) [14896E2F] (AR v2)
Copy OK

All tracks accurately ripped

No errors occurred

End of status report

==== Log checksum CF57CADE8A4C82D443E83DF82E49C077D134FCF574A0C8127450C29B8786B3A6 ====
REM GENRE Soul
REM DATE 2011
REM DISCID 980B0E0C
REM COMMENT "ExactAudioCopy v1.0b3"
CATALOG 0602527761015
PERFORMER "Marlon Roudette"
TITLE "Matter Fixed"
FILE "01. Storyline.wav" WAVE
TRACK 01 AUDIO
TITLE "Storyline"
PERFORMER "Marlon Roudette"
ISRC GB27E1100002
INDEX 01 00:00:00
TRACK 02 AUDIO
TITLE "New Age"
PERFORMER "Marlon Roudette"
ISRC GB27E1100001
INDEX 00 04:50:33
FILE "02. New Age.wav" WAVE
INDEX 01 00:00:00
TRACK 03 AUDIO
TITLE "Hold On Me"
PERFORMER "Marlon Roudette"
ISRC GB27E1100003
INDEX 00 03:31:29
FILE "03. Hold On Me.wav" WAVE
INDEX 01 00:00:00
TRACK 04 AUDIO
TITLE "Brotherhood of the Broken"
PERFORMER "Marlon Roudette"
ISRC GB27E1100006
INDEX 00 03:47:16
FILE "04. Brotherhood of the Broken.wav" WAVE
INDEX 01 00:00:00
TRACK 05 AUDIO
TITLE "Didn't I"
PERFORMER "Marlon Roudette"
ISRC GB27E1100005
INDEX 00 04:03:72
FILE "05. Didn't I.wav" WAVE
INDEX 01 00:00:00
TRACK 06 AUDIO
TITLE "True to Yourself (feat. Finley Quaye)"
PERFORMER "Marlon Roudette"
ISRC GB27E1100007
INDEX 00 03:46:17
FILE "06. True to Yourself (feat. Finley Quaye).wav" WAVE
INDEX 01 00:00:00
TRACK 07 AUDIO
TITLE "Riding Home"
PERFORMER "Marlon Roudette"
ISRC GB27E1100008
INDEX 00 03:39:50
FILE "07. Riding Home.wav" WAVE
INDEX 01 00:00:00
TRACK 08 AUDIO
TITLE "10 Million"
PERFORMER "Marlon Roudette"
ISRC GB27E1100011
INDEX 00 04:04:00
FILE "08. 10 Million.wav" WAVE
INDEX 01 00:00:00
TRACK 09 AUDIO
TITLE "Anti Hero"
PERFORMER "Marlon Roudette"
ISRC GB27E1100004
INDEX 00 03:45:52
FILE "09. Anti Hero.wav" WAVE
INDEX 01 00:00:00
TRACK 10 AUDIO
TITLE "The Loss"
PERFORMER "Marlon Roudette"
ISRC GB27E1100012
INDEX 00 03:45:34
FILE "10. The Loss.wav" WAVE
INDEX 01 00:00:00
TRACK 11 AUDIO
TITLE "Closer (feat. Lucy Leston)"
PERFORMER "Marlon Roudette"
ISRC GB27E1100010
INDEX 00 03:28:38
FILE "11. Closer (feat. Lucy Leston).wav" WAVE
INDEX 01 00:00:00
TRACK 12 AUDIO
TITLE "City Like This"
PERFORMER "Marlon Roudette"
ISRC GB27E1100009
FLAGS DCP
INDEX 00 04:13:40
FILE "12. City Like This.wav" WAVE
INDEX 01 00:00:00
Started at: iyoieoa, 30. 12. 2011. - 22:02.45
12 files found

01 -===- D:\Iocuea\03. Pop\Marlon Roudette - Matter Fixed (2011) [FLAC]\01. Storyline.flac
Extracted successfully
Conclusion: this track is CDDA with probability 100%
Tempfile successfully deleted.

02 -===- D:\Iocuea\03. Pop\Marlon Roudette - Matter Fixed (2011) [FLAC]\02. New Age.flac
Extracted successfully
Conclusion: this track is CDDA with probability 100%
Tempfile successfully deleted.

03 -===- D:\Iocuea\03. Pop\Marlon Roudette - Matter Fixed (2011) [FLAC]\03. Hold On Me.flac
Extracted successfully
Conclusion: this track is CDDA with probability 100%
Tempfile successfully deleted.

04 -===- D:\Iocuea\03. Pop\Marlon Roudette - Matter Fixed (2011) [FLAC]\04. Brotherhood of the Broken.flac
Extracted successfully
Conclusion: this track is CDDA with probability 100%
Tempfile successfully deleted.

05 -===- D:\Iocuea\03. Pop\Marlon Roudette - Matter Fixed (2011) [FLAC]\05. Didn't I.flac
Extracted successfully
Conclusion: this track is CDDA with probability 100%
Tempfile successfully deleted.

06 -===- D:\Iocuea\03. Pop\Marlon Roudette - Matter Fixed (2011) [FLAC]\06. True to Yourself (feat. Finley Quaye).flac
Extracted successfully
Conclusion: this track is CDDA with probability 100%
Tempfile successfully deleted.

07 -===- D:\Iocuea\03. Pop\Marlon Roudette - Matter Fixed (2011) [FLAC]\07. Riding Home.flac
Extracted successfully
Conclusion: this track is CDDA with probability 100%
Tempfile successfully deleted.

08 -===- D:\Iocuea\03. Pop\Marlon Roudette - Matter Fixed (2011) [FLAC]\08. 10 Million.flac
Extracted successfully
Conclusion: this track is CDDA with probability 100%
Tempfile successfully deleted.

09 -===- D:\Iocuea\03. Pop\Marlon Roudette - Matter Fixed (2011) [FLAC]\09. Anti Hero.flac
Extracted successfully
Conclusion: this track is CDDA with probability 100%
Tempfile successfully deleted.

10 -===- D:\Iocuea\03. Pop\Marlon Roudette - Matter Fixed (2011) [FLAC]\10. The Loss.flac
Extracted successfully
Conclusion: this track is CDDA with probability 100%
Tempfile successfully deleted.

11 -===- D:\Iocuea\03. Pop\Marlon Roudette - Matter Fixed (2011) [FLAC]\11. Closer (feat. Lucy Leston).flac
Extracted successfully
Conclusion: this track is CDDA with probability 99%
Tempfile successfully deleted.

12 -===- D:\Iocuea\03. Pop\Marlon Roudette - Matter Fixed (2011) [FLAC]\12. City Like This.flac
Extracted successfully
Conclusion: this track is CDDA with probability 99%
Tempfile successfully deleted.

Finished at: iyoieoa, 30. 12. 2011. - 22:07.46 (operation time: 0:05.00)

Этот торрент недоступен для скачивания без регистрации, однако доступен по публичной magnet-ссылке (источники с публичных трекеров). Перед использованием ссылки прочтите, пожалуйста Пользовательское соглашение, а также как можно дольше оставайтесь на раздаче! Для того, чтобы скачать сам торрент-файл (который видит больше источников), а также для того, чтобы поблагодарить релизера, вам необходимо зарегистрироваться. Если регистрироваться лень - вы можете также попробовать скачать релиз по нашим партнерским ссылкам ниже.

[underverse.su].t35140.torrent
Трекер: Зарегистрирован   [ 11.01.2014 14:47 ]  

Статус: проверено (by Бишеп at 11.01.2014 14:47)
Поблагодарили: пока никто не поблагодарил...
Тип торрента: публичный - доступные источники с открытых трекеров: 
Размер: 286 MB (занимает 0,06 DVDR, для записи нужно 1 болванка DVDR/RW)
 
 
Похожие темы
Форум Тема Автор Торрент Отв. Посл. сооб.
Зарубежный R'n'B (R'n'B, Soul) Zonnique - Love Jones (EP) (2017) [MP3, 320 kbps CBR] Darkferse
2 | 1

0 | 417

1

12.04.2017 20:58

Зарубежный R'n'B (R'n'B, Soul) Avery Sunshine - Twenty Sixty Four (2017) [MP3, 320 kbps CBR] Darkferse
0 | 0

0 | 637

0

26.04.2017 21:05

Зарубежный R'n'B (R'n'B, Soul, Funk) JMSN - Whatever Makes U Happy (2017) [MP3, 320 kbps CBR] Darkferse
5 | 0

0 | 427

1

12.05.2017 15:32

Зарубежный R'n'B (R'n'B, Soul) PARTYNEXTDOOR - Colours 2 [EP] (2017) [MP3, 320 kbps CBR] Darkferse
3 | 0

0 | 295

0

02.06.2017 15:09

Зарубежный R'n'B (R'n'B, Soul, Pop) Daley - The Spectrum (2017) [MP3, 320 kbps CBR] Darkferse
1 | 0

0 | 306

2

26.08.2017 20:40

Зарубежный R'n'B (R'n'B, Soul) Elijah Blake - Audiology (2017) [MP3, 320 kbps CBR] Darkferse
6 | 1

0 | 173

1

05.09.2017 09:21

Зарубежный R'n'B (Lossless) (R'n'B, Soul, Neo-Soul) Maxwell - blackSUMMERS'night (2016) [FLAC (Tracks+.Cue), Lossless] Бишеп
3 | 0

0 | 417

1

17.11.2016 11:18

Зарубежный R'n'B (Lossless) (R'n'B, Soul, Hip-Hop) Iyeoka - Say Yes (2010) [FLAC (Tracks+.Cue), Lossless] Бишеп
31 | 1

0 | 587

2

16.11.2016 19:18

Зарубежный R'n'B (Lossless) (R'n'B, Soul) Toni Braxton & Babyface - Love, Marriage & Divorce (2014) [FLAC (Image+.Cue), Lossless] Бишеп
1 | 0

0 | 454

2

16.11.2016 19:06

Зарубежный R'n'B (Lossless) (R'n'B, Soul, Blues) Joss Stone - The Soul Sessions Vol. 2 (Deluxe Edition) (2012) [FLAC (Image+.CUE), Lossless] Бишеп
10 | 1

1 | 2031

6

21.09.2013 14:06


Яндекс.Метрика powered by Sphinx


В Н И М А Н И Е
Сайт не распространяет и не хранит электронные версии произведений, а лишь бесплатно и без коммерческой выгоды (не требуя взамен платы,
SMS и т.д.) предоставляет доступ к создаваемому пользователями каталогу ссылок на торрент-файлы, которые содержат только списки хеш-сумм.
Убедительная просьба с жалобами обращаться напрямую к пользователю, разместившему торрент файл.

Вверх