Loading...
Error

(R'n'B, Pop, Hip Hop) Nelly Furtado - The Best Of (Deluxe Edition 2CD) (2010) [FLAC (Image+.CUE), Lossless]

Статистика раздачи
Размер:  760 MB   |    Зарегистрирован:  3 года 10 месяцев   |    Скачан:  5 раз

Полного источника не было: 20 дней

Сидов:  0  |  0 KB/s  ]   Личеров:  0  |  0 KB/s  ]

* - сиды/пиры с внешних источников

   
 
Автор Сообщение

Бишеп Пол:Муж

08-Янв-2014 14:03

Nelly Furtado - The Best Of

Жанр: R'n'B, Pop, Hip Hop
Год выпуска: 2010
Производитель диска: Geffen Records - 0602527553832
Аудиокодек: FLAC
Тип рипа: Image+.CUE
Битрейт аудио: Lossless
Продолжительность: 01:45:47
Треклист:
Треклист:
01. I'm Like A Bird
02. Turn Off The Light
03. Shit On The Radio (Remember The Days)
04. Fotografia (duet with Juanes)
05. Powerless (Say What You Want)
06. Try
07. Forca
08. Promiscuous feat. Timbaland
09. Maneater
10. Say It Right
11. All Good Things (Come To An End)
12. In God's Hands
13. Broken Strings feat. James Morrison
14. Girlfriend In This City
15. Night Is Young
16. Stars
17. Manos Al Aire
Bonus Track:
18. Crazy (Radio 1 Live Lounge Session)

Exact Audio Copy V0.99 prebeta 5 from 4. May 2009

EAC extraction logfile from 11. November 2010, 13:26

Nelly Furtado / The Best Of

Used drive : SlimtypeBD E DS4E1S Adapter: 0 ID: 1

Read mode : Secure
Utilize accurate stream : Yes
Defeat audio cache : Yes
Make use of C2 pointers : No

Read offset correction : 6
Overread into Lead-In and Lead-Out : No
Fill up missing offset samples with silence : Yes
Delete leading and trailing silent blocks : No
Null samples used in CRC calculations : Yes
Used interface : Native Win32 interface for Win NT & 2000

Used output format : User Defined Encoder
Selected bitrate : 768 kBit/s
Quality : High
Add ID3 tag : No
Command line compressor : C:\Program Files (x86)\Exact Audio Copy\Flac\flac.exe
Additional command line options : -8 -V -T "DATE=%y" -T "GENRE=%m" %s

TOC of the extracted CD

Track | Start | Length | Start sector | End sector
---------------------------------------------------------
1 | 0:00.00 | 4:04.07 | 0 | 18306
2 | 4:04.07 | 4:35.72 | 18307 | 39003
3 | 8:40.04 | 3:55.37 | 39004 | 56665
4 | 12:35.41 | 4:00.48 | 56666 | 74713
5 | 16:36.14 | 3:54.30 | 74714 | 92293
6 | 20:30.44 | 4:38.45 | 92294 | 113188
7 | 25:09.14 | 3:41.23 | 113189 | 129786
8 | 28:50.37 | 4:02.28 | 129787 | 147964
9 | 32:52.65 | 4:18.31 | 147965 | 167345
10 | 37:11.21 | 3:43.39 | 167346 | 184109
11 | 40:54.60 | 5:09.47 | 184110 | 207331
12 | 46:04.32 | 4:12.38 | 207332 | 226269
13 | 50:16.70 | 4:10.49 | 226270 | 245068
14 | 54:27.44 | 4:42.51 | 245069 | 266269
15 | 59:10.20 | 3:32.13 | 266270 | 282182
16 | 62:42.33 | 4:28.19 | 282183 | 302301
17 | 67:10.52 | 3:29.00 | 302302 | 317976
18 | 70:39.52 | 3:24.32 | 317977 | 333308

Range status and errors

Selected range

Filename C:\Rip's\Nelly Furtado - The Best Of (Deluxe Edition) 2010\DISC 1 - THE BEST OF\Nelly Furtado - The Best Of.wav

Peak level 100.0 %
Range quality 100.0 %
Test CRC 5C69ABE0
Copy CRC 5C69ABE0
Copy OK

No errors occurred

AccurateRip summary
Track 1 not present in database
Track 2 not present in database
Track 3 not present in database
Track 4 not present in database
Track 5 not present in database
Track 6 not present in database
Track 7 not present in database
Track 8 not present in database
Track 9 not present in database
Track 10 not present in database
Track 11 not present in database
Track 12 not present in database
Track 13 not present in database
Track 14 not present in database
Track 15 not present in database
Track 16 not present in database
Track 17 not present in database
Track 18 not present in database
None of the tracks are present in the AccurateRip database

End of status report

Треклист:
01. Quando, Quando, Quando (Duet With Michael Buble)
02. Te Busque (Duet With Juanes)
03. Island Of Wonder feat. Caetano Veloso
04. I'm Like A Bird (Nelly Vs Asha Remix)
05. Who Wants To Be Alone (Tiesto feat. Nelly Furtado)
06. Sacrifice (The Roots feat. Nelly Furtado)
07. In God's Hands feat. Keith Urban

Exact Audio Copy V0.99 prebeta 5 from 4. May 2009

EAC extraction logfile from 11. November 2010, 13:54

Nelly Furtado / The Best Of (Bonus Disc)

Used drive : SlimtypeBD E DS4E1S Adapter: 0 ID: 1

Read mode : Secure
Utilize accurate stream : Yes
Defeat audio cache : Yes
Make use of C2 pointers : No

Read offset correction : 6
Overread into Lead-In and Lead-Out : No
Fill up missing offset samples with silence : Yes
Delete leading and trailing silent blocks : No
Null samples used in CRC calculations : Yes
Used interface : Native Win32 interface for Win NT & 2000

Used output format : User Defined Encoder
Selected bitrate : 768 kBit/s
Quality : High
Add ID3 tag : No
Command line compressor : C:\Program Files (x86)\Exact Audio Copy\Flac\flac.exe
Additional command line options : -8 -V -T "DATE=%y" -T "GENRE=%m" %s

TOC of the extracted CD

Track | Start | Length | Start sector | End sector
---------------------------------------------------------
1 | 0:00.00 | 4:45.56 | 0 | 21430
2 | 4:45.56 | 3:39.20 | 21431 | 37875
3 | 8:25.01 | 3:49.64 | 37876 | 55114
4 | 12:14.65 | 5:26.64 | 55115 | 79628
5 | 17:41.54 | 4:37.57 | 79629 | 100460
6 | 22:19.36 | 4:47.13 | 100461 | 121998
7 | 27:06.49 | 4:37.08 | 121999 | 142781

Range status and errors

Selected range

Filename C:\Rip's\Nelly Furtado - The Best Of (Deluxe Edition) 2010\DISC 2 - BONUS DISC\Nelly Furtado - The Best Of (Bonus Disc).wav

Peak level 100.0 %
Range quality 100.0 %
Test CRC F53E100E
Copy CRC F53E100E
Copy OK

No errors occurred

AccurateRip summary
Track 1 not present in database
Track 2 not present in database
Track 3 not present in database
Track 4 not present in database
Track 5 not present in database
Track 6 not present in database
Track 7 not present in database
None of the tracks are present in the AccurateRip database

End of status report

Этот торрент недоступен для скачивания без регистрации, однако доступен по публичной magnet-ссылке (источники с публичных трекеров). Перед использованием ссылки прочтите, пожалуйста Пользовательское соглашение, а также как можно дольше оставайтесь на раздаче! Для того, чтобы скачать сам торрент-файл (который видит больше источников), а также для того, чтобы поблагодарить релизера, вам необходимо зарегистрироваться. Если регистрироваться лень - вы можете также попробовать скачать релиз по нашим партнерским ссылкам ниже.

[underverse.su].t35050.torrent
Трекер: Зарегистрирован   [ 08.01.2014 14:03 ]  

Статус: проверено (by Бишеп at 08.01.2014 14:04)
Поблагодарили: пока никто не поблагодарил...
Тип торрента: публичный - доступные источники с открытых трекеров: 
Размер: 760 MB (занимает 0,17 DVDR, для записи нужно 1 болванка DVDR/RW)
 
 
Похожие темы
Форум Тема Автор Торрент Отв. Посл. сооб.
Зарубежный R'n'B (Lossless) (R'n'B, Pop, Soul) Emeli Sande (Sande) - Our Version Of Events: Live At The Royal Albert Hall (2013) [FLAC (Image+.Cue), Lossless] Бишеп
3 | 0

0 | 532

1

20.11.2016 14:17

Зарубежный R'n'B (Lossless) (R'n'B, Pop, Soul) Emeli Sande - Our Version of Events (2012) [FLAC (Tracks+.Cue), Lossless] Бишеп
5 | 18

0 | 462

1

07.11.2016 17:07

Зарубежный R'n'B (Lossless) (R'n'B, Pop, Soul) Bruno Mars - Unorthodox Jukebox (Target Deluxe Edition) (2012) [FLAC (Tracks+.Cue), lossless] Бишеп
6 | 3

0 | 785

2

07.11.2016 16:59

Зарубежный R'n'B (Lossless) (R'n'B, Pop) Bruno Mars - Doo-Wops & Hooligans (2010) [FLAC (Tracks+.CUE), Lossless] Бишеп
3 | 0

0 | 2139

5

04.11.2013 10:53

Зарубежный R'n'B (Lossless) (R'n'B, Pop, Soul) Sam Smith - In The Lonely Hour (Target Deluxe Edition) (2014) [FLAC (Tracks+.CUE), Lossless] Бишеп
7 | 6

0 | 1601

4

27.10.2014 20:17

Зарубежный R'n'B (Lossless) (R'n'B, Pop) Naughty Boy feat. Sam Smith - La La La (Promo CD) (2013) [FLAC (Image+.CUE), Lossless] Бишеп
2 | 0

0 | 802

2

07.02.2015 07:09

Зарубежный R'n'B (Lossless) (R'n'B, Pop) Fifth Harmony - 7/27 (Deluxe Edition) (2016) [FLAC (Tracks), Lossless] Web Бишеп
1 | 5

0 | 710

1

03.11.2016 05:56

Зарубежный R'n'B (Lossless) (R'n'B, Pop) Fifth Harmony - Reflection (Deluxe Edition) (2015) [FLAC (Tracks+.Cue), Lossless] Бишеп
7 | 3

0 | 648

2

03.11.2016 05:48

Зарубежный R'n'B (Lossless) (R'n'B, Pop, Soul) Emeli Sande - Long Live The Angels (2016) [FLAC (Image+.Cue), Lossless] Бишеп
1 | 0

0 | 750

1

17.11.2016 04:42

* Архив (R'n'B, Pop) Ради Славы - Будем счастливыми (2008) [MP3, CBR 320 kbps] EugeneShad

2 | 1336

30.08.2010 01:31


Яндекс.Метрика powered by Sphinx


В Н И М А Н И Е
Сайт не распространяет и не хранит электронные версии произведений, а лишь бесплатно и без коммерческой выгоды (не требуя взамен платы,
SMS и т.д.) предоставляет доступ к создаваемому пользователями каталогу ссылок на торрент-файлы, которые содержат только списки хеш-сумм.
Убедительная просьба с жалобами обращаться напрямую к пользователю, разместившему торрент файл.

Вверх