Loading...
Error

(Авторская песня) Игорь Растеряев - Русская дорога (2011) [FLAC (Image+.CUE), Lossless]

Статистика раздачи
Размер:  294 MB   |    Зарегистрирован:  4 года 5 месяцев   |    Скачан:  15 раз

Полного источника не было: 2 месяца 16 дней

Сидов:  0  |  0 KB/s  ]   Личеров:  0  |  0 KB/s  ]

* - сиды/пиры с внешних источников

   
 
Автор Сообщение

Бишеп Пол:Муж

19-Дек-2013 18:43

Игорь Растеряев - Русская дорога

Жанр: Авторская песня
Год выпуска: 2011
Производитель диска: Россия
Аудиокодек: FLAC
Тип рипа: Image+.CUE
Битрейт аудио: Lossless
Продолжительность: 00:45:41
Треклист:
01. Русская дорога
02. Васёк Коробёнков (Рассказ)
03. Комбайнёры
04. Мир (Рассказ)
05. Ромашки
06. Раковка (Рассказ)
07. Раковка (Песня)
08. Георгиевская ленточка
09. Казачья
10. Сергей Блинов (Рассказ)
11. Богатыри
12. Любовь к Родине (Рассказ)


Плюс четыре клипа:
- Казачья песня
- Комбайнеры
- Ромашки
- Русская дорога

Exact Audio Copy V1.0 beta 1 from 15. November 2010

Отчёт EAC об извлечении, выполненном 12. февраля 2011, 18:47

ИГОРЬ РАСТЕРЯЕВ / РУССКАЯ ДОРОГА

Дисковод: SlimtypeDVD A DS8A1P Adapter: 1 ID: 0

Режим чтения : Достоверность
Использование точного потока : Да
Отключение кэша аудио : Да
Использование указателей C2 : Нет

Коррекция смещения при чтении : 594
Способность читать области Lead-in и Lead-out : Нет
Заполнение пропущенных сэмплов тишиной : Да
Удаление блоков с тишиной в начале и конце : Нет
При вычислениях CRC использовались нулевые сэмплы : Да
Интерфейс : Встроенный Win32-интерфейс для Win NT/2000

Выходной формат : Внутренние WAV-операции
Формат сэмплов : 44.100 Гц; 16 бит; стерео

TOC извлечённого CD

Трек | Старт | Длительность | Начальный сектор | Конечный сектор
---------------------------------------------------------------------
1 | 0:00.00 | 2:49.06 | 0 | 12680
2 | 2:49.06 | 0:29.56 | 12681 | 14911
3 | 3:18.62 | 3:45.13 | 14912 | 31799
4 | 7:04.00 | 0:37.37 | 31800 | 34611
5 | 7:41.37 | 4:04.27 | 34612 | 52938
6 | 11:45.64 | 0:46.20 | 52939 | 56408
7 | 12:32.09 | 3:14.57 | 56409 | 71015
8 | 15:46.66 | 4:27.04 | 71016 | 91044
9 | 20:13.70 | 3:04.30 | 91045 | 104874
10 | 23:18.25 | 0:49.54 | 104875 | 108603
11 | 24:08.04 | 2:16.59 | 108604 | 118862
12 | 26:24.63 | 1:02.68 | 118863 | 123580
13 | 29:59.56 | 15:40.74 | 134981 | 205554

Характеристики диапазона извлечения и сообщения об ошибках

Выбранный диапазон

Имя файла C:\Users\1\Desktop\Igor_Rasteriaev_Russkaya_Doroga_flac\ИГОРЬ РАСТЕРЯЕВ - РУССКАЯ ДОРОГА.wav

Пиковый уровень 94.8 %
Скорость извлечения 0.8 X
Качество диапазона 100.0 %
CRC теста 8A0C8D0F
CRC копии 8A0C8D0F
Копирование... OK

Ошибок не произошло

AccurateRip: сводка
Трек 1 отсутствует в базе данных
Трек 2 отсутствует в базе данных
Трек 3 отсутствует в базе данных
Трек 4 отсутствует в базе данных
Трек 5 отсутствует в базе данных
Трек 6 отсутствует в базе данных
Трек 7 отсутствует в базе данных
Трек 8 отсутствует в базе данных
Трек 9 отсутствует в базе данных
Трек 10 отсутствует в базе данных
Трек 11 отсутствует в базе данных
Трек 12 отсутствует в базе данных
Ни одного трека нет в базе AccurateRip

Конец отчёта
Продолжительность: 00:03:03

Формат: avi
Видео: DivX 5, 512x384, 983 kbps
Аудио: MP3 2.0, 320 kbps

Код:

General
Complete name                    : D:\Desktop\Музыка\Наши\Игорь Растеряев - Русская дорога (2011).flac\4 клипа\Казачья песня.avi
Format                           : AVI
Format/Info                      : Audio Video Interleave
File size                        : 32.4 MiB
Duration                         : 3mn 3s
Overall bit rate                 : 1 485 Kbps

Video
ID                               : 0
Format                           : MPEG-4 Visual
Format settings, BVOP            : Yes
Format settings, QPel            : No
Format settings, GMC             : No warppoints
Format settings, Matrix          : Default (H.263)
Muxing mode                      : Packed bitstream
Codec ID                         : DX50
Codec ID/Hint                    : DivX 5
Duration                         : 3mn 3s
Bit rate                         : 983 Kbps
Width                            : 512 pixels
Height                           : 384 pixels
Display aspect ratio             : 4/3
Frame rate                       : 25.000 fps
Resolution                       : 24 bits
Colorimetry                      : 4:2:0
Scan type                        : Progressive
Bits/(Pixel*Frame)               : 0.200
Stream size                      : 21.5 MiB (66%)
Writing library                  : DivX 5.1.1 Beta2 (UTC 2003-11)

Audio
ID                               : 1
Format                           : MPEG Audio
Format version                   : Version 1
Format profile                   : Layer 3
Codec ID                         : 55
Codec ID/Hint                    : MP3
Duration                         : 3mn 3s
Bit rate mode                    : Constant
Bit rate                         : 320 Kbps
Channel(s)                       : 2 channels
Sampling rate                    : 44.1 KHz
Resolution                       : 16 bits
Stream size                      : 6.99 MiB (22%)
Alignment                        : Aligned on interleaves
Interleave, duration             : 40 ms (1.00 video frame)
Interleave, preload duration     : 313 ms

picpicpic
Для увеличения картинки щелкните мышкой по превью
Продолжительность: 00:03:31

Формат: avi
Видео: DivX 5, 512x384, 980 kbps
Аудио: MP3 2.0, 320 kbps

Код:

General
Complete name                    : D:\Desktop\Музыка\Наши\Игорь Растеряев - Русская дорога (2011).flac\4 клипа\Комбайнеры.avi
Format                           : AVI
Format/Info                      : Audio Video Interleave
File size                        : 37.3 MiB
Duration                         : 3mn 31s
Overall bit rate                 : 1 481 Kbps

Video
ID                               : 0
Format                           : MPEG-4 Visual
Format settings, BVOP            : Yes
Format settings, QPel            : No
Format settings, GMC             : No warppoints
Format settings, Matrix          : Default (H.263)
Muxing mode                      : Packed bitstream
Codec ID                         : DX50
Codec ID/Hint                    : DivX 5
Duration                         : 3mn 31s
Bit rate                         : 980 Kbps
Width                            : 512 pixels
Height                           : 384 pixels
Display aspect ratio             : 4/3
Frame rate                       : 25.000 fps
Resolution                       : 24 bits
Colorimetry                      : 4:2:0
Scan type                        : Progressive
Bits/(Pixel*Frame)               : 0.199
Stream size                      : 24.7 MiB (66%)
Writing library                  : DivX 5.1.1 Beta2 (UTC 2003-11)

Audio
ID                               : 1
Format                           : MPEG Audio
Format version                   : Version 1
Format profile                   : Layer 3
Codec ID                         : 55
Codec ID/Hint                    : MP3
Duration                         : 3mn 31s
Bit rate mode                    : Constant
Bit rate                         : 320 Kbps
Channel(s)                       : 2 channels
Sampling rate                    : 44.1 KHz
Resolution                       : 16 bits
Stream size                      : 8.06 MiB (22%)
Alignment                        : Aligned on interleaves
Interleave, duration             : 40 ms (1.00 video frame)
Interleave, preload duration     : 182 ms

picpicpic
Для увеличения картинки щелкните мышкой по превью
Продолжительность: 00:03:35

Формат: avi
Видео: DivX 5, 512x384, 977 kbps
Аудио: MP3 2.0, 320 kbps

Код:

General
Complete name                    : D:\Desktop\Музыка\Наши\Игорь Растеряев - Русская дорога (2011).flac\4 клипа\Ромашки.avi
Format                           : AVI
Format/Info                      : Audio Video Interleave
File size                        : 37.9 MiB
Duration                         : 3mn 35s
Overall bit rate                 : 1 478 Kbps

Video
ID                               : 0
Format                           : MPEG-4 Visual
Format settings, BVOP            : Yes
Format settings, QPel            : No
Format settings, GMC             : No warppoints
Format settings, Matrix          : Default (H.263)
Muxing mode                      : Packed bitstream
Codec ID                         : DX50
Codec ID/Hint                    : DivX 5
Duration                         : 3mn 35s
Bit rate                         : 978 Kbps
Width                            : 512 pixels
Height                           : 384 pixels
Display aspect ratio             : 4/3
Frame rate                       : 25.000 fps
Resolution                       : 24 bits
Colorimetry                      : 4:2:0
Scan type                        : Progressive
Bits/(Pixel*Frame)               : 0.199
Stream size                      : 25.1 MiB (66%)
Writing library                  : DivX 5.1.1 Beta2 (UTC 2003-11)

Audio
ID                               : 1
Format                           : MPEG Audio
Format version                   : Version 1
Format profile                   : Layer 3
Codec ID                         : 55
Codec ID/Hint                    : MP3
Duration                         : 3mn 35s
Bit rate mode                    : Constant
Bit rate                         : 320 Kbps
Channel(s)                       : 2 channels
Sampling rate                    : 44.1 KHz
Resolution                       : 16 bits
Stream size                      : 8.21 MiB (22%)
Alignment                        : Aligned on interleaves
Interleave, duration             : 40 ms (1.00 video frame)
Interleave, preload duration     : 182 ms

picpicpic
Для увеличения картинки щелкните мышкой по превью
Продолжительность: 00:02:47

Формат: avi
Видео: DivX 5, 512x384, 985 kbps
Аудио: MP3 2.0, 320 kbps

Код:

General
Complete name                    : D:\Desktop\Музыка\Наши\Игорь Растеряев - Русская дорога (2011).flac\4 клипа\Русская дорога.avi
Format                           : AVI
Format/Info                      : Audio Video Interleave
File size                        : 29.8 MiB
Duration                         : 2mn 47s
Overall bit rate                 : 1 488 Kbps

Video
ID                               : 0
Format                           : MPEG-4 Visual
Format settings, BVOP            : Yes
Format settings, QPel            : No
Format settings, GMC             : No warppoints
Format settings, Matrix          : Default (H.263)
Muxing mode                      : Packed bitstream
Codec ID                         : DX50
Codec ID/Hint                    : DivX 5
Duration                         : 2mn 47s
Bit rate                         : 986 Kbps
Width                            : 512 pixels
Height                           : 384 pixels
Display aspect ratio             : 4/3
Frame rate                       : 25.000 fps
Resolution                       : 24 bits
Colorimetry                      : 4:2:0
Scan type                        : Progressive
Bits/(Pixel*Frame)               : 0.201
Stream size                      : 19.7 MiB (66%)
Writing library                  : DivX 5.1.1 Beta2 (UTC 2003-11)

Audio
ID                               : 1
Format                           : MPEG Audio
Format version                   : Version 1
Format profile                   : Layer 3
Codec ID                         : 55
Codec ID/Hint                    : MP3
Duration                         : 2mn 47s
Bit rate mode                    : Constant
Bit rate                         : 320 Kbps
Channel(s)                       : 2 channels
Sampling rate                    : 44.1 KHz
Resolution                       : 16 bits
Stream size                      : 6.40 MiB (21%)
Alignment                        : Aligned on interleaves
Interleave, duration             : 40 ms (1.00 video frame)
Interleave, preload duration     : 234 ms

picpicpic
Для увеличения картинки щелкните мышкой по превью

Этот торрент недоступен для скачивания без регистрации, однако доступен по публичной magnet-ссылке (источники с публичных трекеров). Перед использованием ссылки прочтите, пожалуйста Пользовательское соглашение, а также как можно дольше оставайтесь на раздаче! Для того, чтобы скачать сам торрент-файл (который видит больше источников), а также для того, чтобы поблагодарить релизера, вам необходимо зарегистрироваться. Если регистрироваться лень - вы можете также попробовать скачать релиз по нашим партнерским ссылкам ниже. Кроме того, зарегистрированным пользователям не показывается всплывающая реклама при скачивании.

[underverse.su].t34382.torrent
Трекер: Зарегистрирован   [ 19.12.2013 18:43 ]  

Статус: проверено (by Бишеп at 19.12.2013 18:56)
Поблагодарили: пока никто не поблагодарил...
Тип торрента: публичный - доступные источники с открытых трекеров: 
Размер: 294 MB (занимает 0,07 DVDR, для записи нужно 1 болванка DVDR/RW)
 
 
Похожие темы
Форум Тема Автор Торрент Отв. Посл. сооб.
Авторские песни, Барды (Авторская песня) Владимир Высоцкий - Полная коллекция (2009) [MP3, 320 kbps] Добрый жмот
6 | 2

11 | 5762

78

31.07.2013 07:22

Авторские песни, Барды (Авторская песня) Тимур Шаов - О чем молчал Герасим... (2010) [MP3, 320 kbps] KonKoSerg
11 | 0

4 | 2521

25

24.08.2013 06:03

Авторские песни, Барды (Авторская песня) Татьяна и Сергей Никитины - Городок, что я выдумал (2011) [MP3, 320 kbps] KonKoSerg
2 | 1

1 | 2786

39

11.05.2013 10:18

Авторские песни, Барды (Авторская песня) Владимир Высоцкий - Дискография [22 СD] (2001-2007) [MP3, 320 CBR] vovanig
2 | 0

2 | 3341

56

07.08.2014 19:18

Авторские песни, Барды (Авторская песня) Семён Слепаков - Альбом 1 (2012) [MP3, 320 kbps CBR] Бишеп
2 | 0

1 | 1971

53

11.05.2013 07:53

Авторские песни, Барды (Авторская песня, Фолк) Никола Емелин (Емеля) - Дискография (6 альбомов) (1989 - 2011) [MP3, 64-320 kbps] gregsib
11 | 0

1 | 1918

22

05.07.2013 18:48

Авторские песни, Барды (Авторская песня) Вячеслав Мясников (Уральские пельмени) - Сборник песен (2014) [MP3, 128-320 kbps CBR] terra07
1 | 0

1 | 2595

42

09.12.2015 14:37

Авторские песни, Барды (Авторская песня) Владимир Высоцкий - Спасибо, что живой. Песни из кинофильма... - и не только (2012) [MP3, 320 kbps CBR] valera87
1 | 0

0 | 1183

7

14.03.2015 16:31

Авторские песни, Барды (Lossless) (Авторская песня) Владимир Высоцкий - Grand Collection. Часть 1 / Часть 2 (2004) [FLAC (Tracks+.CUE), lossless] garry
1 | 0

1 | 1792

12

21.04.2012 07:06

# Авторские песни, Барды (Lossless) (Авторская песня) Евгений Баранник - На Прорезной (2010) [FLAC (Tracks+.CUE), lossless] garry
1 | 0

0 | 2375

1

20.02.2012 18:25



Последний раз редактировалось: Бишеп (19.12.2013 19:09), всего редактировалось 2 раз(а)

Бишеп Пол:Муж

19-Дек-2013 19:20

В раздаче .CUE для файла wav, чтобы прослушать потреково файл flac нужно .CUE открыть в блакноте windows и исправить wav на flac (сохранить).
FILE "ИГОРЬ РАСТЕРЯЕВ - РУССКАЯ ДОРОГА.wav" WAVE
FILE "ИГОРЬ РАСТЕРЯЕВ - РУССКАЯ ДОРОГА.flac" WAVE

Jimmy Пол:Муж

20-Дек-2013 18:47

Отличный альбом, кстати :) живой, настоящий!
Георгиевская ленточка даже слёзы вызывает при прослушивании!

PANGEOR Пол:Муж

30-Дек-2013 23:17

Цитата:

В раздаче .CUE для файла wav, чтобы прослушать потреково файл flac нужно .CUE открыть в блакноте windows и исправить wav на flac (сохранить). FILE "ИГОРЬ РАСТЕРЯЕВ - РУССКАЯ ДОРОГА.wav" WAVE FILE "ИГОРЬ РАСТЕРЯЕВ - РУССКАЯ ДОРОГА.flac" WAVE
_________________
1.) Во-первых: Спасибо Бишеп !
Пользоваться кнопкой «СПАСИБО» ОЧЕНЬ неудобно! (да простит великий модератор за
конструктивную критику)
2.) Во-вторых: зачем вот эти сложности: .СУЕ, .МУЕ, FLAC ШМАК....???? Запутать хотел?
Ну, да ,ладно. Получилось - запутал. :good:
.FLAC был 160 кг. а после Sound Forge стал весить 19 м. (mp3) - ~10мин работы
Но «Sound Forge» - инструмент для работы. А хотелось послушать Растеряева....
И тем не менее СПАСИБО!

Яндекс.Метрика powered by Sphinx


В Н И М А Н И Е
Сайт не распространяет и не хранит электронные версии произведений, а лишь бесплатно и без коммерческой выгоды (не требуя взамен платы,
SMS и т.д.) предоставляет доступ к создаваемому пользователями каталогу ссылок на торрент-файлы, которые содержат только списки хеш-сумм.
Убедительная просьба с жалобами обращаться напрямую к пользователю, разместившему торрент файл.

Вверх