Loading...
Error

(Авторская песня) Песни нашего века - В. Берковский (2005) [APE (Image+.CUE), Lossless]

Статистика раздачи
Размер:  332 MB   |    Зарегистрирован:  4 года 5 месяцев   |    Скачан:  9 раз

Полного источника не было: 1 месяц 25 дней

Сидов:  0  |  0 KB/s  ]   Личеров:  0  |  0 KB/s  ]

* - сиды/пиры с внешних источников

   
 
Автор Сообщение

Бишеп Пол:Муж

11-Дек-2013 16:48

Песни нашего века - В. Берковский

Жанр: Авторская песня
Год выпуска: 2005
Производитель диска: IVC
Аудиокодек: APE
Тип рипа: Image+.CUE
Битрейт аудио: Lossless
Продолжительность: 00:55.49
Треклист:
01. Божественная суббота (ст. Б.Окуджава)
02. В городском саду (ст. Б.Окуджава)
03. Гренада (ст. М.Светлов)
04. Лошади в океане" (ст. Б.Слуцкий)
05. Песня шагом, шагом (ст. Н.Матвеева)
06. Морская трава (ст. Д.Сухарев)
07. Синее море (ст. Д.Сухарев)
08. Контрабандисты (ст. Э.Багрицкий)
09. Куда ты уехала, Сьюзин? (ст. Д.Сухарев)
10. Под музыку Вивальди (ст. А.Величанский)
11. Снегопад (ст. Ю.Мориц)
12. Брод через Кабул (ст. Р.Киплинг в переводе А.Сендыка)
13. Вспомните, ребята (ст. Д.Сухарев)
14. Самолетик (ст. Д.Сухарев)
15. Кленовый лист (ст. С.Матюшин)
16. Марк Шагал (ст. Р.Рождественский)
17. Персидский базар (ст. В.Смехов)
18. На далекой Амазонке (ст. Р.Киплинг в переводе С.Маршака)
19. Мой город засыпает (ст. Б.Окуджава)

Exact Audio Copy V0.99 prebeta 3 from 28. July 2007

Отчёт EAC об извлечении, выполненном 13. октября 2008, 20:42

Барды / Песни Нашего Века. В. Берковский

Дисковод: ASUS DRW-1814BLT Adapter: 4 ID: 0

Режим чтения : Достоверность
Использование точного потока : Да
Отключение кэша аудио : Да
Использование указателей C2 : Нет

Коррекция смещения при чтении : 6
Способность читать области Lead-in и Lead-out : Нет
Заполнение пропущенных сэмплов тишиной : Да
Удаление блоков с тишиной в начале и конце : Нет
При вычислениях CRC использовались нулевые сэмплы : Нет
Интерфейс : Установленный внешний ASPI-интерфейс

Выходной формат : Внутренние WAV-операции
Формат сэмплов : 44.100 Гц; 16 бит; стерео

TOC извлечённого CD

Трек | Старт | Длительность | Начальный сектор | Конечный сектор
---------------------------------------------------------------------
1 | 0:00.00 | 1:57.31 | 0 | 8805
2 | 1:57.31 | 2:41.14 | 8806 | 20894
3 | 4:38.45 | 3:12.24 | 20895 | 35318
4 | 7:50.69 | 3:05.47 | 35319 | 49240
5 | 10:56.41 | 2:11.27 | 49241 | 59092
6 | 13:07.68 | 2:07.11 | 59093 | 68628
7 | 15:15.04 | 2:55.70 | 68629 | 81823
8 | 18:10.74 | 2:44.30 | 81824 | 94153
9 | 20:55.29 | 3:52.70 | 94154 | 111623
10 | 24:48.24 | 2:44.56 | 111624 | 123979
11 | 27:33.05 | 4:19.64 | 123980 | 143468
12 | 31:52.69 | 2:30.71 | 143469 | 154789
13 | 34:23.65 | 2:44.29 | 154790 | 167118
14 | 37:08.19 | 4:33.34 | 167119 | 187627
15 | 41:41.53 | 4:15.29 | 187628 | 206781
16 | 45:57.07 | 2:37.49 | 206782 | 218605
17 | 48:34.56 | 2:48.05 | 218606 | 231210
18 | 51:22.61 | 2:14.71 | 231211 | 241331
19 | 53:37.57 | 2:12.05 | 241332 | 251236

Характеристики диапазона извлечения и сообщения об ошибках

Выбранный диапазон

Имя файла C:\My upload\Pesni_veka_Berkovsky\Барды - Песни Нашего Века. В. Берковский.wav

Пиковый уровень 96.6 %
Качество диапазона 100.0 %
CRC копии 8C2E3899
Копирование... OK

Ошибок не произошло

Конец отчёта
AUDIOCHECKER v2.0 beta (build 457) - by Dester - opdester@freemail.hu
~~~~~~~~~~~~~~~~~~~~~~~~~~~~~~~~~~
-=== НЕ РЕДАКТИРУЙТЕ ЭТОТ ФАЙЛ! ===-

Путь: ...\Pesni_veka_Berkovsky

1 -=- Барды - Песни Нашего Века. В. Берковский.ape -=- CDDA (100%)

187484324

pic
Для увеличения картинки щелкните мышкой по превью

Этот торрент недоступен для скачивания без регистрации, однако доступен по публичной magnet-ссылке (источники с публичных трекеров). Перед использованием ссылки прочтите, пожалуйста Пользовательское соглашение, а также как можно дольше оставайтесь на раздаче! Для того, чтобы скачать сам торрент-файл (который видит больше источников), а также для того, чтобы поблагодарить релизера, вам необходимо зарегистрироваться. Если регистрироваться лень - вы можете также попробовать скачать релиз по нашим партнерским ссылкам ниже. Кроме того, зарегистрированным пользователям не показывается всплывающая реклама при скачивании.

[underverse.su].t34074.torrent
Трекер: Зарегистрирован   [ 11.12.2013 16:48 ]  

Статус: проверено (by Бишеп at 11.12.2013 16:48)
Поблагодарили: пока никто не поблагодарил...
Тип торрента: публичный - доступные источники с открытых трекеров: 
Размер: 332 MB (занимает 0,07 DVDR, для записи нужно 1 болванка DVDR/RW)
 
 
Похожие темы
Форум Тема Автор Торрент Отв. Посл. сооб.
Авторские песни, Барды (Авторская песня) Владимир Высоцкий - Полная коллекция (2009) [MP3, 320 kbps] Добрый жмот
6 | 2

11 | 5763

78

31.07.2013 07:22

Авторские песни, Барды (Авторская песня) Тимур Шаов - О чем молчал Герасим... (2010) [MP3, 320 kbps] KonKoSerg
9 | 0

4 | 2522

25

24.08.2013 06:03

Авторские песни, Барды (Авторская песня) Татьяна и Сергей Никитины - Городок, что я выдумал (2011) [MP3, 320 kbps] KonKoSerg
2 | 1

1 | 2786

39

11.05.2013 10:18

Авторские песни, Барды (Авторская песня) Владимир Высоцкий - Дискография [22 СD] (2001-2007) [MP3, 320 CBR] vovanig
2 | 0

2 | 3342

56

07.08.2014 19:18

Авторские песни, Барды (Авторская песня) Семён Слепаков - Альбом 1 (2012) [MP3, 320 kbps CBR] Бишеп
3 | 0

1 | 1972

53

11.05.2013 07:53

Авторские песни, Барды (Авторская песня, Фолк) Никола Емелин (Емеля) - Дискография (6 альбомов) (1989 - 2011) [MP3, 64-320 kbps] gregsib
11 | 0

1 | 1919

22

05.07.2013 18:48

Авторские песни, Барды (Авторская песня) Вячеслав Мясников (Уральские пельмени) - Сборник песен (2014) [MP3, 128-320 kbps CBR] terra07
1 | 0

1 | 2595

42

09.12.2015 14:37

Авторские песни, Барды (Авторская песня) Владимир Высоцкий - Спасибо, что живой. Песни из кинофильма... - и не только (2012) [MP3, 320 kbps CBR] valera87
1 | 0

0 | 1183

7

14.03.2015 16:31

Авторские песни, Барды (Lossless) (Авторская песня) Владимир Высоцкий - Grand Collection. Часть 1 / Часть 2 (2004) [FLAC (Tracks+.CUE), lossless] garry
0 | 0

1 | 1792

12

21.04.2012 07:06

# Авторские песни, Барды (Lossless) (Авторская песня) Евгений Баранник - На Прорезной (2010) [FLAC (Tracks+.CUE), lossless] garry
0 | 0

0 | 2375

1

20.02.2012 18:25

Бишеп Пол:Муж

11-Дек-2013 17:09

В раздаче .CUE для файла wav, чтобы прослушать потреково файл ape нужно .CUE открыть в блакноте windows и исправить wav на ape (сохранить).
FILE "Барды - Песни Нашего Века. В. Берковский.wav" WAVE
FILE "Барды - Песни Нашего Века. В. Берковский.аре" WAVE

Яндекс.Метрика powered by Sphinx


В Н И М А Н И Е
Сайт не распространяет и не хранит электронные версии произведений, а лишь бесплатно и без коммерческой выгоды (не требуя взамен платы,
SMS и т.д.) предоставляет доступ к создаваемому пользователями каталогу ссылок на торрент-файлы, которые содержат только списки хеш-сумм.
Убедительная просьба с жалобами обращаться напрямую к пользователю, разместившему торрент файл.

Вверх