Loading...
Error

(Авторская песня) Александр Городницкий - Песни нашего века (2011) [FLAC (Tracks+.CUE), Lossless]

Статистика раздачи
Размер:  324 MB   |    Зарегистрирован:  4 года 6 месяцев   |    Скачан:  20 раз

Полного источника не было: 6 дней

Сидов:  0  |  0 KB/s  ]   Личеров:  0  |  0 KB/s  ]

* - сиды/пиры с внешних источников

   
 
Автор Сообщение

Бишеп Пол:Муж

11-Ноя-2013 12:55

Александр Городницкий - Песни нашего века

Жанр: Авторская песня
Год выпуска: 2011
Производитель диска: IVC Миэль
Аудиокодек: FLAC
Тип рипа: Tracks+.CUE
Битрейт аудио: Lossless
Продолжительность: 00:49:55
Треклист:
01. На материк
02. Ленинградская
03. Чистые пруды
04. Итака (Стих)
05. Геркулесовы столбы
06. Моряк, покрепче вяжи узлы
07. Деревянные города
08. Жена французского посла
09. Система Декарта
10. Любите родину (Стих)
11. Над Канадой
12. Паруса "Крузенштерна"
13. Снег
14. Песня полярных летчиков
15. Пиратская
16. Перекаты
17. Донской монастрырь
18. Ах, не ревнуй
19. Определение дома (Стих)
20. Атланты

Exact Audio Copy V1.0 beta 3 from 29. August 2011

Отчёт EAC об извлечении, выполненном 27. августа 2012, 12:16

Песни нашего века / Песни нашего века-9. Александр Городницкий

Дисковод: Optiarc DVD RW AD-7260S Adapter: 3 ID: 1

Режим чтения : Достоверность
Использование точного потока : Да
Отключение кэша аудио : Да
Использование указателей C2 : Нет

Коррекция смещения при чтении : 48
Способность читать области Lead-in и Lead-out : Нет
Заполнение пропущенных сэмплов тишиной : Да
Удаление блоков с тишиной в начале и конце : Нет
При вычислениях CRC использовались нулевые сэмплы : Да
Интерфейс : Встроенный Win32-интерфейс для Win NT/2000
Обработка зазоров : Добавлено к предыдущему треку

Выходной формат : Пользовательский кодировщик
Выбранный битрейт : 128 kBit/s
Качество : Высокий
Добавление ID3-тега : Нет
Утилита сжатия : c:\Program Files\Exact Audio Copy\Flac\flac.exe
Дополнительные параметры : -V -8 -T "Genre=%genre%" -T "Artist=%artist%" -T "Title=%title%" -T "Album=%albumtitle%" -T "Date=%year%" -T "Tracknumber=%tracknr%" -T "Comment=%comment%" %source%

TOC извлечённого CD

Трек | Старт | Длительность | Начальный сектор | Конечный сектор
---------------------------------------------------------------------
1 | 0:00.00 | 2:12.29 | 0 | 9928
2 | 2:12.29 | 2:50.15 | 9929 | 22693
3 | 5:02.44 | 2:23.58 | 22694 | 33476
4 | 7:26.27 | 1:35.07 | 33477 | 40608
5 | 9:01.34 | 3:13.45 | 40609 | 55128
6 | 12:15.04 | 2:38.20 | 55129 | 66998
7 | 14:53.24 | 2:46.64 | 66999 | 79512
8 | 17:40.13 | 2:39.10 | 79513 | 91447
9 | 20:19.23 | 3:06.30 | 91448 | 105427
10 | 23:25.53 | 0:57.71 | 105428 | 109773
11 | 24:23.49 | 2:54.61 | 109774 | 122884
12 | 27:18.35 | 2:43.27 | 122885 | 135136
13 | 30:01.62 | 3:41.69 | 135137 | 151780
14 | 33:43.56 | 2:03.36 | 151781 | 161041
15 | 35:47.17 | 2:22.02 | 161042 | 171693
16 | 38:09.19 | 2:17.12 | 171694 | 181980
17 | 40:26.31 | 3:08.16 | 181981 | 196096
18 | 43:34.47 | 2:24.74 | 196097 | 206970
19 | 45:59.46 | 1:54.45 | 206971 | 215565
20 | 47:54.16 | 2:00.71 | 215566 | 224636

Трек 1

Имя файла D:\New\PNV-9\01 - На материк.wav

Длина предзазора 0:00:02.00

Пиковый уровень 99.9 %
Скорость извлечения 2.1 X
Качество трека 100.0 %
CRC теста B02664B4
CRC копии B02664B4
Копирование... OK

Трек 2

Имя файла D:\New\PNV-9\02 - Ленинградская.wav

Длина предзазора 0:00:02.00

Пиковый уровень 99.9 %
Скорость извлечения 2.4 X
Качество трека 100.0 %
CRC теста FFC45291
CRC копии FFC45291
Копирование... OK

Трек 3

Имя файла D:\New\PNV-9\03 - Чистые пруды.wav

Длина предзазора 0:00:02.00

Пиковый уровень 99.9 %
Скорость извлечения 2.0 X
Качество трека 99.9 %
CRC теста B6EF0E1B
CRC копии B6EF0E1B
Копирование... OK

Трек 4

Имя файла D:\New\PNV-9\04 - Итака (стих).wav

Длина предзазора 0:00:02.00

Пиковый уровень 71.2 %
Скорость извлечения 2.3 X
Качество трека 100.0 %
CRC теста 21C0E551
CRC копии 21C0E551
Копирование... OK

Трек 5

Имя файла D:\New\PNV-9\05 - Геркулесовы столбы.wav

Пиковый уровень 99.9 %
Скорость извлечения 2.9 X
Качество трека 100.0 %
CRC теста 47CEF083
CRC копии 47CEF083
Копирование... OK

Трек 6

Имя файла D:\New\PNV-9\06 - Моряк, покрепче вяжи узлы.wav

Длина предзазора 0:00:02.00

Пиковый уровень 99.9 %
Скорость извлечения 2.9 X
Качество трека 100.0 %
CRC теста 996C979B
CRC копии 996C979B
Копирование... OK

Трек 7

Имя файла D:\New\PNV-9\07 - Деревянные города.wav

Длина предзазора 0:00:02.00

Пиковый уровень 99.9 %
Скорость извлечения 3.0 X
Качество трека 100.0 %
CRC теста AF475ED3
CRC копии AF475ED3
Копирование... OK

Трек 8

Имя файла D:\New\PNV-9\08 - Жена французского посла.wav

Длина предзазора 0:00:02.00

Пиковый уровень 99.9 %
Скорость извлечения 3.2 X
Качество трека 100.0 %
CRC теста A646E600
CRC копии A646E600
Копирование... OK

Трек 9

Имя файла D:\New\PNV-9\09 - Система Декарта.wav

Длина предзазора 0:00:02.00

Пиковый уровень 99.9 %
Скорость извлечения 3.4 X
Качество трека 100.0 %
CRC теста 717A6A71
CRC копии 717A6A71
Копирование... OK

Трек 10

Имя файла D:\New\PNV-9\10 - Любите родину (стих).wav

Длина предзазора 0:00:02.00

Пиковый уровень 71.2 %
Скорость извлечения 2.5 X
Качество трека 100.0 %
CRC теста F404A815
CRC копии F404A815
Копирование... OK

Трек 11

Имя файла D:\New\PNV-9\11 - Над Канадой.wav

Пиковый уровень 99.9 %
Скорость извлечения 3.5 X
Качество трека 100.0 %
CRC теста BC236CD2
CRC копии BC236CD2
Копирование... OK

Трек 12

Имя файла D:\New\PNV-9\12 - Паруса ''Крузенштерна''.wav

Длина предзазора 0:00:02.00

Пиковый уровень 99.9 %
Скорость извлечения 3.0 X
Качество трека 99.9 %
CRC теста C3D79155
CRC копии C3D79155
Копирование... OK

Трек 13

Имя файла D:\New\PNV-9\13 - Снег.wav

Длина предзазора 0:00:02.00

Пиковый уровень 100.0 %
Скорость извлечения 3.9 X
Качество трека 100.0 %
CRC теста DC5F39AE
CRC копии DC5F39AE
Копирование... OK

Трек 14

Имя файла D:\New\PNV-9\14 - Песня полярных летчиков.wav

Длина предзазора 0:00:02.00

Пиковый уровень 100.0 %
Скорость извлечения 2.9 X
Качество трека 99.9 %
CRC теста 3B9BA5C9
CRC копии 3B9BA5C9
Копирование... OK

Трек 15

Имя файла D:\New\PNV-9\15 - Пиратская.wav

Длина предзазора 0:00:02.00

Пиковый уровень 99.9 %
Скорость извлечения 3.7 X
Качество трека 100.0 %
CRC теста 15E6994F
CRC копии 15E6994F
Копирование... OK

Трек 16

Имя файла D:\New\PNV-9\16 - Перекаты.wav

Длина предзазора 0:00:02.00

Пиковый уровень 100.0 %
Скорость извлечения 3.9 X
Качество трека 100.0 %
CRC теста CC00BF75
CRC копии CC00BF75
Копирование... OK

Трек 17

Имя файла D:\New\PNV-9\17 - Донской монастрырь.wav

Длина предзазора 0:00:02.00

Пиковый уровень 99.9 %
Скорость извлечения 3.6 X
Качество трека 99.9 %
CRC теста 8324995A
CRC копии 8324995A
Копирование... OK

Трек 18

Имя файла D:\New\PNV-9\18 - Ах, не ревнуй.wav

Длина предзазора 0:00:02.00

Пиковый уровень 99.9 %
Скорость извлечения 4.0 X
Качество трека 100.0 %
CRC теста 975677D4
CRC копии 975677D4
Копирование... OK

Трек 19

Имя файла D:\New\PNV-9\19 - Определение дома (стих).wav

Длина предзазора 0:00:02.00

Пиковый уровень 73.2 %
Скорость извлечения 3.9 X
Качество трека 100.0 %
CRC теста F5D86520
CRC копии F5D86520
Копирование... OK

Трек 20

Имя файла D:\New\PNV-9\20 - Атланты.wav

Пиковый уровень 100.0 %
Скорость извлечения 4.0 X
Качество трека 100.0 %
CRC теста 4321E0ED
CRC копии 4321E0ED
Копирование... OK

Ошибок не произошло

Конец отчёта
REM GENRE Ballad
REM DATE 2011
REM DISCID 040BB314
REM COMMENT "ExactAudioCopy v1.0b3"
PERFORMER "Песни нашего века"
TITLE "Песни нашего века-9. Александр Городницкий"
FILE "01 - На материк.wav" WAVE
TRACK 01 AUDIO
TITLE "На материк"
PERFORMER "Песни нашего века"
INDEX 01 00:00:00
TRACK 02 AUDIO
TITLE "Ленинградская"
PERFORMER "Песни нашего века"
INDEX 00 02:10:29
FILE "02 - Ленинградская.wav" WAVE
INDEX 01 00:00:00
TRACK 03 AUDIO
TITLE "Чистые пруды"
PERFORMER "Песни нашего века"
INDEX 00 02:48:15
FILE "03 - Чистые пруды.wav" WAVE
INDEX 01 00:00:00
TRACK 04 AUDIO
TITLE "Итака (стих)"
PERFORMER "Песни нашего века"
INDEX 00 02:21:58
FILE "04 - Итака (стих).wav" WAVE
INDEX 01 00:00:00
FILE "05 - Геркулесовы столбы.wav" WAVE
TRACK 05 AUDIO
TITLE "Геркулесовы столбы"
PERFORMER "Песни нашего века"
INDEX 01 00:00:00
TRACK 06 AUDIO
TITLE "Моряк, покрепче вяжи узлы"
PERFORMER "Песни нашего века"
INDEX 00 03:11:45
FILE "06 - Моряк, покрепче вяжи узлы.wav" WAVE
INDEX 01 00:00:00
TRACK 07 AUDIO
TITLE "Деревянные города"
PERFORMER "Песни нашего века"
INDEX 00 02:36:20
FILE "07 - Деревянные города.wav" WAVE
INDEX 01 00:00:00
TRACK 08 AUDIO
TITLE "Жена французского посла"
PERFORMER "Песни нашего века"
INDEX 00 02:44:64
FILE "08 - Жена французского посла.wav" WAVE
INDEX 01 00:00:00
TRACK 09 AUDIO
TITLE "Система Декарта"
PERFORMER "Песни нашего века"
INDEX 00 02:37:10
FILE "09 - Система Декарта.wav" WAVE
INDEX 01 00:00:00
TRACK 10 AUDIO
TITLE "Любите родину (стих)"
PERFORMER "Песни нашего века"
INDEX 00 03:04:30
FILE "10 - Любите родину (стих).wav" WAVE
INDEX 01 00:00:00
FILE "11 - Над Канадой.wav" WAVE
TRACK 11 AUDIO
TITLE "Над Канадой"
PERFORMER "Песни нашего века"
INDEX 01 00:00:00
TRACK 12 AUDIO
TITLE "Паруса 'Крузенштерна'"
PERFORMER "Песни нашего века"
INDEX 00 02:52:61
FILE "12 - Паруса ''Крузенштерна''.wav" WAVE
INDEX 01 00:00:00
TRACK 13 AUDIO
TITLE "Снег"
PERFORMER "Песни нашего века"
INDEX 00 02:41:27
FILE "13 - Снег.wav" WAVE
INDEX 01 00:00:00
TRACK 14 AUDIO
TITLE "Песня полярных летчиков"
PERFORMER "Песни нашего века"
INDEX 00 03:39:69
FILE "14 - Песня полярных летчиков.wav" WAVE
INDEX 01 00:00:00
TRACK 15 AUDIO
TITLE "Пиратская"
PERFORMER "Песни нашего века"
INDEX 00 02:01:36
FILE "15 - Пиратская.wav" WAVE
INDEX 01 00:00:00
TRACK 16 AUDIO
TITLE "Перекаты"
PERFORMER "Песни нашего века"
INDEX 00 02:20:02
FILE "16 - Перекаты.wav" WAVE
INDEX 01 00:00:00
TRACK 17 AUDIO
TITLE "Донской монастрырь"
PERFORMER "Песни нашего века"
INDEX 00 02:15:12
FILE "17 - Донской монастрырь.wav" WAVE
INDEX 01 00:00:00
TRACK 18 AUDIO
TITLE "Ах, не ревнуй"
PERFORMER "Песни нашего века"
INDEX 00 03:06:16
FILE "18 - Ах, не ревнуй.wav" WAVE
INDEX 01 00:00:00
TRACK 19 AUDIO
TITLE "Определение дома (стих)"
PERFORMER "Песни нашего века"
INDEX 00 02:22:74
FILE "19 - Определение дома (стих).wav" WAVE
INDEX 01 00:00:00
FILE "20 - Атланты.wav" WAVE
TRACK 20 AUDIO
TITLE "Атланты"
PERFORMER "Песни нашего века"
INDEX 01 00:00:00
AUDIOCHECKER v2.0 beta (build 457) - by Dester - opdester@freemail.hu
~~~~~~~~~~~~~~~~~~~~~~~~~~~~~~~~~~
-=== НЕ РЕДАКТИРУЙТЕ ЭТОТ ФАЙЛ! ===-

Путь: ...\PNV-9_Gorodnicky

01 -=- 01 - На материк.flac -=- CDDA (100%)
02 -=- 02 - Ленинградская.flac -=- CDDA (99%)
03 -=- 03 - Чистые пруды.flac -=- CDDA (100%)
04 -=- 04 - Итака (стих).flac -=- MPEG (95%)
05 -=- 05 - Геркулесовы столбы.flac -=- CDDA (100%)
06 -=- 06 - Моряк, покрепче вяжи узлы.flac -=- CDDA (100%)
07 -=- 07 - Деревянные города.flac -=- CDDA (100%)
08 -=- 08 - Жена французского посла.flac -=- CDDA (100%)
09 -=- 09 - Система Декарта.flac -=- CDDA (100%)
10 -=- 10 - Любите родину (стих).flac -=- MPEG (95%)
11 -=- 11 - Над Канадой.flac -=- CDDA (100%)
12 -=- 12 - Паруса ''Крузенштерна''.flac -=- CDDA (99%)
13 -=- 13 - Снег.flac -=- CDDA (49%)
14 -=- 14 - Песня полярных летчиков.flac -=- CDDA (58%)
15 -=- 15 - Пиратская.flac -=- CDDA (100%)
16 -=- 16 - Перекаты.flac -=- CDDA (94%)
17 -=- 17 - Донской монастрырь.flac -=- CDDA (99%)
18 -=- 18 - Ах, не ревнуй.flac -=- CDDA (100%)
19 -=- 19 - Определение дома (стих).flac -=- MPEG (95%)
20 -=- 20 - Атланты.flac -=- MPEG (95%)

Сводка 75,90% CDDA

143349556

Этот торрент недоступен для скачивания без регистрации, однако доступен по публичной magnet-ссылке (источники с публичных трекеров). Перед использованием ссылки прочтите, пожалуйста Пользовательское соглашение, а также как можно дольше оставайтесь на раздаче! Для того, чтобы скачать сам торрент-файл (который видит больше источников), а также для того, чтобы поблагодарить релизера, вам необходимо зарегистрироваться. Если регистрироваться лень - вы можете также попробовать скачать релиз по нашим партнерским ссылкам ниже. Кроме того, зарегистрированным пользователям не показывается всплывающая реклама при скачивании.

[underverse.su].t32937.torrent
Трекер: Зарегистрирован   [ 11.11.2013 12:55 ]  

Статус: # сомнительно (by Бишеп at 11.11.2013 13:01)
Поблагодарили: 2 человека
Тип торрента: публичный - доступные источники с открытых трекеров: 
Размер: 324 MB (занимает 0,07 DVDR, для записи нужно 1 болванка DVDR/RW)
 
 
Похожие темы
Форум Тема Автор Торрент Отв. Посл. сооб.
Авторские песни, Барды (Авторская песня) Владимир Высоцкий - Полная коллекция (2009) [MP3, 320 kbps] Добрый жмот
6 | 2

11 | 5762

78

31.07.2013 07:22

Авторские песни, Барды (Авторская песня) Тимур Шаов - О чем молчал Герасим... (2010) [MP3, 320 kbps] KonKoSerg
11 | 0

4 | 2521

25

24.08.2013 06:03

Авторские песни, Барды (Авторская песня) Татьяна и Сергей Никитины - Городок, что я выдумал (2011) [MP3, 320 kbps] KonKoSerg
2 | 1

1 | 2786

39

11.05.2013 10:18

Авторские песни, Барды (Авторская песня) Владимир Высоцкий - Дискография [22 СD] (2001-2007) [MP3, 320 CBR] vovanig
2 | 0

2 | 3341

56

07.08.2014 19:18

Авторские песни, Барды (Авторская песня) Семён Слепаков - Альбом 1 (2012) [MP3, 320 kbps CBR] Бишеп
2 | 0

1 | 1971

53

11.05.2013 07:53

Авторские песни, Барды (Авторская песня, Фолк) Никола Емелин (Емеля) - Дискография (6 альбомов) (1989 - 2011) [MP3, 64-320 kbps] gregsib
11 | 0

1 | 1918

22

05.07.2013 18:48

Авторские песни, Барды (Авторская песня) Вячеслав Мясников (Уральские пельмени) - Сборник песен (2014) [MP3, 128-320 kbps CBR] terra07
1 | 0

1 | 2595

42

09.12.2015 14:37

Авторские песни, Барды (Авторская песня) Владимир Высоцкий - Спасибо, что живой. Песни из кинофильма... - и не только (2012) [MP3, 320 kbps CBR] valera87
1 | 0

0 | 1183

7

14.03.2015 16:31

Авторские песни, Барды (Lossless) (Авторская песня) Владимир Высоцкий - Grand Collection. Часть 1 / Часть 2 (2004) [FLAC (Tracks+.CUE), lossless] garry
1 | 0

1 | 1792

12

21.04.2012 07:06

# Авторские песни, Барды (Lossless) (Авторская песня) Евгений Баранник - На Прорезной (2010) [FLAC (Tracks+.CUE), lossless] garry
1 | 0

0 | 2375

1

20.02.2012 18:25

Бишеп Пол:Муж

11-Ноя-2013 14:01


Яндекс.Метрика powered by Sphinx


В Н И М А Н И Е
Сайт не распространяет и не хранит электронные версии произведений, а лишь бесплатно и без коммерческой выгоды (не требуя взамен платы,
SMS и т.д.) предоставляет доступ к создаваемому пользователями каталогу ссылок на торрент-файлы, которые содержат только списки хеш-сумм.
Убедительная просьба с жалобами обращаться напрямую к пользователю, разместившему торрент файл.

Вверх