Loading...
Error

(Авторская песня, Шансон) Александр Розенбаум - Одинокий волк (2001) [FLAC (Image+.CUE), Lossless]

Статистика раздачи
Размер:  454 MB   |    Зарегистрирован:  4 года 7 месяцев   |    Скачан:  6 раз

Полного источника не было: 27 дней

Сидов:  0  |  0 KB/s  ]   Личеров:  0  |  0 KB/s  ]

* - сиды/пиры с внешних источников

   
 
Автор Сообщение

Бишеп Пол:Муж

25-Окт-2013 08:06

Александр Розенбаум - Одинокий волк

Жанр: Авторская песня, Шансон
Год выпуска: 2001
Производитель диска: S.T.M Records CD-048
Аудиокодек: FLAC
Тип рипа: Image+.CUE
Битрейт аудио: Lossless
Продолжительность: 01:07:10
Треклист:
01. Одинокий волк
02. Воры в законе
03. Транссибирская магистраль
04. Низкий старт
05. Там,куда спешу
06. Коллаж:
Лиговка, На улице Марата, Неужели это было?, В моем дворе, Умница
07. Утиная охота
08. Снег и метель
09. Вещая судьба
10. Отслужи по мне, отслужи
11. Старые скамейки
12. Романс Генерала Чарноты
13. Нарисуйте мне дом
14. Ветер-конокрад
15. Дай мне минуту
16. Монолог пилота "Черного тюльпана"
17. Ау

Exact Audio Copy V1.0 beta 3 from 29. August 2011

Отчёт EAC об извлечении, выполненном 18. января 2012, 17:50

Александр Розенбаум / Одинокий волк

Дисковод: PIONEER DVD-RW DVR-118L Adapter: 0 ID: 0

Режим чтения : Достоверность
Использование точного потока : Да
Отключение кэша аудио : Да
Использование указателей C2 : Нет

Коррекция смещения при чтении : 6
Способность читать области Lead-in и Lead-out : Нет
Заполнение пропущенных сэмплов тишиной : Да
Удаление блоков с тишиной в начале и конце : Нет
При вычислениях CRC использовались нулевые сэмплы : Да
Интерфейс : Встроенный Win32-интерфейс для Win NT/2000

Выходной формат : Пользовательский кодировщик
Выбранный битрейт : 1024 kBit/s
Качество : Высокий
Добавление ID3-тега : Нет
Утилита сжатия : C:\Program Files\FLAC\flac.exe
Дополнительные параметры : -V -8 -T "Date=%year%" -T "Genre=%genre%" %source%

TOC извлечённого CD

Трек | Старт | Длительность | Начальный сектор | Конечный сектор
---------------------------------------------------------------------
1 | 0:00.00 | 2:42.32 | 0 | 12181
2 | 2:42.32 | 4:11.50 | 12182 | 31056
3 | 6:54.07 | 3:47.41 | 31057 | 48122
4 | 10:41.48 | 3:54.68 | 48123 | 65740
5 | 14:36.41 | 4:31.22 | 65741 | 86087
6 | 19:07.63 | 6:20.69 | 86088 | 114656
7 | 25:28.57 | 4:16.04 | 114657 | 133860
8 | 29:44.61 | 4:44.25 | 133861 | 155185
9 | 34:29.11 | 3:47.66 | 155186 | 172276
10 | 38:17.02 | 2:30.21 | 172277 | 183547
11 | 40:47.23 | 3:52.02 | 183548 | 200949
12 | 44:39.25 | 2:43.19 | 200950 | 213193
13 | 47:22.44 | 3:58.74 | 213194 | 231117
14 | 51:21.43 | 3:53.05 | 231118 | 248597
15 | 55:14.48 | 3:07.65 | 248598 | 262687
16 | 58:22.38 | 3:52.22 | 262688 | 280109
17 | 62:14.60 | 4:56.01 | 280110 | 302310

Характеристики диапазона извлечения и сообщения об ошибках

Выбранный диапазон

Имя файла J:\Раздачи 3\Александр Розенбаум_Одинокий волк_2001 г\Александр Розенбаум - Одинокий волк.wav

Пиковый уровень 96.6 %
Скорость извлечения 1.4 X
Качество диапазона 99.9 %
CRC теста 202C671C
CRC копии 202C671C
Копирование... OK

Ошибок не произошло

AccurateRip: сводка
Трек 1 отсутствует в базе данных
Трек 2 отсутствует в базе данных
Трек 3 отсутствует в базе данных
Трек 4 отсутствует в базе данных
Трек 5 отсутствует в базе данных
Трек 6 отсутствует в базе данных
Трек 7 отсутствует в базе данных
Трек 8 отсутствует в базе данных
Трек 9 отсутствует в базе данных
Трек 10 отсутствует в базе данных
Трек 11 отсутствует в базе данных
Трек 12 отсутствует в базе данных
Трек 13 отсутствует в базе данных
Трек 14 отсутствует в базе данных
Трек 15 отсутствует в базе данных
Трек 16 отсутствует в базе данных
Трек 17 отсутствует в базе данных
Ни одного трека нет в базе AccurateRip

Конец отчёта

==== Контрольная сумма отчёта FC5D8D4F6D63D1BF66426F1CCB422C36C2C2382F402366C3161BDEB24D9359B8 ====
AUDIOCHECKER v2.0 beta (build 457) - by Dester - opdester@freemail.hu
~~~~~~~~~~~~~~~~~~~~~~~~~~~~~~~~~~

Начато: среда, 18. 01. 2012. - 20:48.40
Найдено файлов: 1

1 -===- J:\Раздачи 3\Александр Розенбаум_Одинокий волк_2001 г\Александр Розенбаум - Одинокий волк.flac
Извлечение успешно выполнено
Заключение: этот трек - CDDA с вероятностью 100%
Временный файл удалён.

Завершено: среда, 18. 01. 2012. - 21:06.15 (Время операции: 0:17.35)

Этот торрент недоступен для скачивания без регистрации, однако доступен по публичной magnet-ссылке (источники с публичных трекеров). Перед использованием ссылки прочтите, пожалуйста Пользовательское соглашение, а также как можно дольше оставайтесь на раздаче! Для того, чтобы скачать сам торрент-файл (который видит больше источников), а также для того, чтобы поблагодарить релизера, вам необходимо зарегистрироваться. Если регистрироваться лень - вы можете также попробовать скачать релиз по нашим партнерским ссылкам ниже. Кроме того, зарегистрированным пользователям не показывается всплывающая реклама при скачивании.

[underverse.su].t32286.torrent
Трекер: Зарегистрирован   [ 25.10.2013 08:06 ]  

Статус: проверено (by Бишеп at 25.10.2013 08:07)
Поблагодарили: 2 человека
Тип торрента: публичный - доступные источники с открытых трекеров: 
Размер: 454 MB (занимает 0,1 DVDR, для записи нужно 1 болванка DVDR/RW)
 
 
Похожие темы
Форум Тема Автор Торрент Отв. Посл. сооб.
Авторские песни, Барды (Авторская песня) Владимир Высоцкий - Полная коллекция (2009) [MP3, 320 kbps] Добрый жмот
6 | 2

11 | 5762

78

31.07.2013 07:22

Авторские песни, Барды (Авторская песня) Тимур Шаов - О чем молчал Герасим... (2010) [MP3, 320 kbps] KonKoSerg
11 | 0

4 | 2521

25

24.08.2013 06:03

Авторские песни, Барды (Авторская песня) Татьяна и Сергей Никитины - Городок, что я выдумал (2011) [MP3, 320 kbps] KonKoSerg
2 | 1

1 | 2786

39

11.05.2013 10:18

Авторские песни, Барды (Авторская песня) Владимир Высоцкий - Дискография [22 СD] (2001-2007) [MP3, 320 CBR] vovanig
2 | 0

2 | 3341

56

07.08.2014 19:18

Авторские песни, Барды (Авторская песня) Семён Слепаков - Альбом 1 (2012) [MP3, 320 kbps CBR] Бишеп
2 | 0

1 | 1971

53

11.05.2013 07:53

Авторские песни, Барды (Авторская песня, Фолк) Никола Емелин (Емеля) - Дискография (6 альбомов) (1989 - 2011) [MP3, 64-320 kbps] gregsib
11 | 0

1 | 1918

22

05.07.2013 18:48

Авторские песни, Барды (Авторская песня) Вячеслав Мясников (Уральские пельмени) - Сборник песен (2014) [MP3, 128-320 kbps CBR] terra07
1 | 0

1 | 2594

42

09.12.2015 14:37

Авторские песни, Барды (Авторская песня) Владимир Высоцкий - Спасибо, что живой. Песни из кинофильма... - и не только (2012) [MP3, 320 kbps CBR] valera87
1 | 0

0 | 1183

7

14.03.2015 16:31

Авторские песни, Барды (Lossless) (Авторская песня) Владимир Высоцкий - Grand Collection. Часть 1 / Часть 2 (2004) [FLAC (Tracks+.CUE), lossless] garry
0 | 0

1 | 1791

12

21.04.2012 07:06

# Авторские песни, Барды (Lossless) (Авторская песня) Евгений Баранник - На Прорезной (2010) [FLAC (Tracks+.CUE), lossless] garry
0 | 0

0 | 2375

1

20.02.2012 18:25


Яндекс.Метрика powered by Sphinx


В Н И М А Н И Е
Сайт не распространяет и не хранит электронные версии произведений, а лишь бесплатно и без коммерческой выгоды (не требуя взамен платы,
SMS и т.д.) предоставляет доступ к создаваемому пользователями каталогу ссылок на торрент-файлы, которые содержат только списки хеш-сумм.
Убедительная просьба с жалобами обращаться напрямую к пользователю, разместившему торрент файл.

Вверх