Loading...
Error

(R'n'B, Soul, Blues) Joss Stone - The Soul Sessions Vol. 2 (Deluxe Edition) (2012) [FLAC (Image+.CUE), Lossless]

Статистика раздачи
Размер:  490 MB   |    Зарегистрирован:  4 года 2 месяца   |    Скачан:  6 раз

Полного источника не было: 8 дней

Сидов:  0  |  0 KB/s  ]   Личеров:  0  |  0 KB/s  ]

* - сиды/пиры с внешних источников

   
 
Автор Сообщение

Бишеп Пол:Муж

21-Сен-2013 14:04

Joss Stone - The Soul Sessions Vol. 2

Жанр: R'n'B, Soul, Blues
Год выпуска: 2012
Производитель диска: Warner Music - 5053105347957
Аудиокодек: FLAC
Тип рипа: Image+.CUE
Битрейт аудио: Lossless
Продолжительность: 01:02:36
Треклист:
01. I Got the...
02. (For God's Sake) Give More Power To the People
03. While You're Out Looking for Sugar
04. Sideways Shuffle
05. I Don't Wanna Be With Nobody But You
06. Teardrops
07. Stoned Out of My Mind
08. The Love We Had (Stays On My Mind)
09. The High Road
10. Pillow Talk
11. Then You Can Tell Me Goodbye
Bonus Tracks:
12. First Taste Of Hurt
13. One Love In My Lifetime
14. Nothing Takes The Place Of You
15. (1234567) Count The Days

Exact Audio Copy V1.0 beta 3 from 29. August 2011

EAC extraction logfile from 23. December 2012, 20:51

Joss Stone / The Soul Sessions Vol 2 (Deluxe Edition)

Used drive : ATAPI iHAS124 B Adapter: 2 ID: 0

Read mode : Secure
Utilize accurate stream : Yes
Defeat audio cache : Yes
Make use of C2 pointers : No

Read offset correction : 6
Overread into Lead-In and Lead-Out : No
Fill up missing offset samples with silence : Yes
Delete leading and trailing silent blocks : No
Null samples used in CRC calculations : Yes
Used interface : Native Win32 interface for Win NT & 2000

Used output format : User Defined Encoder
Selected bitrate : 1024 kBit/s
Quality : High
Add ID3 tag : No
Command line compressor : C:\Program Files (x86)\Exact Audio Copy\FLAC\FLAC.EXE
Additional command line options : -8 -V -T "ARTIST=%artist%" -T "TITLE=%title%" -T "ALBUM=%albumtitle%" -T "DATE=%year%" -T "TRACKNUMBER=%tracknr%" -T "GENRE=%genre%" -T "PERFORMER=%albuminterpret%" -T "COMPOSER=%composer%" %haslyrics%--tag-from-file=LYRICS="%lyricsfile%"%haslyrics% -T "ALBUMARTIST=%albumartist%" -T "DISCNUMBER=%cdnumber%" -T "TOTALDISCS=%totalcds%" -T "TOTALTRACKS=%numtracks%" -T "COMMENT=%comment%" %source% -o %dest%

TOC of the extracted CD

Track | Start | Length | Start sector | End sector
---------------------------------------------------------
1 | 0:00.00 | 4:59.43 | 0 | 22467
2 | 4:59.43 | 3:44.23 | 22468 | 39290
3 | 8:43.66 | 3:28.09 | 39291 | 54899
4 | 12:12.00 | 3:38.35 | 54900 | 71284
5 | 15:50.35 | 5:00.49 | 71285 | 93833
6 | 20:51.09 | 5:55.66 | 93834 | 120524
7 | 26:47.00 | 3:12.72 | 120525 | 134996
8 | 29:59.72 | 4:42.50 | 134997 | 156196
9 | 34:42.47 | 4:40.18 | 156197 | 177214
10 | 39:22.65 | 4:42.56 | 177215 | 198420
11 | 44:05.46 | 3:51.46 | 198421 | 215791
12 | 47:57.17 | 3:39.33 | 215792 | 232249
13 | 51:36.50 | 3:49.36 | 232250 | 249460
14 | 55:26.11 | 3:25.73 | 249461 | 264908
15 | 58:52.09 | 3:44.06 | 264909 | 281714

Range status and errors

Selected range

Filename G:\CD\Joss Stone - The Soul Sessions Vol 2.wav

Peak level 99.8 %
Extraction speed 6.4 X
Range quality 100.0 %
Test CRC 1571F137
Copy CRC 1571F137
Copy OK

No errors occurred

AccurateRip summary
Track 1 not present in database
Track 2 not present in database
Track 3 not present in database
Track 4 not present in database
Track 5 not present in database
Track 6 not present in database
Track 7 not present in database
Track 8 not present in database
Track 9 not present in database
Track 10 not present in database
Track 11 not present in database
Track 12 not present in database
Track 13 not present in database
Track 14 not present in database
Track 15 not present in database
None of the tracks are present in the AccurateRip database

End of status report

==== Log checksum E974D30D6CF7CA0870FADF8C9F78BE5F5E08212AA88605F33EEBEC37C087A493 ====

Этот торрент недоступен для скачивания без регистрации, однако доступен по публичной magnet-ссылке (источники с публичных трекеров). Перед использованием ссылки прочтите, пожалуйста Пользовательское соглашение, а также как можно дольше оставайтесь на раздаче! Для того, чтобы скачать сам торрент-файл (который видит больше источников), а также для того, чтобы поблагодарить релизера, вам необходимо зарегистрироваться. Если регистрироваться лень - вы можете также попробовать скачать релиз по нашим партнерским ссылкам ниже.

[underverse.su].t31133.torrent
Трекер: Зарегистрирован   [ 21.09.2013 14:05 ]  

Статус: проверено (by Бишеп at 21.09.2013 14:06)
Поблагодарили: пока никто не поблагодарил...
Тип торрента: публичный - доступные источники с открытых трекеров: 
Размер: 490 MB (занимает 0,11 DVDR, для записи нужно 1 болванка DVDR/RW)
 
 
Похожие темы
Форум Тема Автор Торрент Отв. Посл. сооб.
Зарубежный R'n'B (R'n'B, Soul) Zonnique - Love Jones (EP) (2017) [MP3, 320 kbps CBR] Darkferse
2 | 1

0 | 417

1

12.04.2017 20:58

Зарубежный R'n'B (R'n'B, Soul) Avery Sunshine - Twenty Sixty Four (2017) [MP3, 320 kbps CBR] Darkferse
0 | 0

0 | 637

0

26.04.2017 21:05

Зарубежный R'n'B (R'n'B, Soul, Funk) JMSN - Whatever Makes U Happy (2017) [MP3, 320 kbps CBR] Darkferse
5 | 0

0 | 427

1

12.05.2017 15:32

Зарубежный R'n'B (R'n'B, Soul) PARTYNEXTDOOR - Colours 2 [EP] (2017) [MP3, 320 kbps CBR] Darkferse
3 | 0

0 | 295

0

02.06.2017 15:09

Зарубежный R'n'B (R'n'B, Soul, Pop) Daley - The Spectrum (2017) [MP3, 320 kbps CBR] Darkferse
1 | 0

0 | 306

2

26.08.2017 20:40

Зарубежный R'n'B (R'n'B, Soul) Elijah Blake - Audiology (2017) [MP3, 320 kbps CBR] Darkferse
6 | 1

0 | 173

1

05.09.2017 09:21

Зарубежный R'n'B (Lossless) (R'n'B, Soul, Neo-Soul) Maxwell - blackSUMMERS'night (2016) [FLAC (Tracks+.Cue), Lossless] Бишеп
3 | 0

0 | 417

1

17.11.2016 11:18

Зарубежный R'n'B (Lossless) (R'n'B, Soul, Hip-Hop) Iyeoka - Say Yes (2010) [FLAC (Tracks+.Cue), Lossless] Бишеп
31 | 1

0 | 586

2

16.11.2016 19:18

Зарубежный R'n'B (Lossless) (R'n'B, Soul) Toni Braxton & Babyface - Love, Marriage & Divorce (2014) [FLAC (Image+.Cue), Lossless] Бишеп
1 | 0

0 | 454

2

16.11.2016 19:06

Зарубежный R'n'B (Lossless) (R'n'B, Soul, Pop) Jason Derulo - Everything is 4 (2015) [FLAC (Image+.Cue), Lossless] Бишеп
10 | 0

0 | 608

1

06.11.2016 16:11



Последний раз редактировалось: Бишеп (07.02.2015 07:13), всего редактировалось 1 раз

Бишеп Пол:Муж

21-Сен-2013 14:06


Яндекс.Метрика powered by Sphinx


В Н И М А Н И Е
Сайт не распространяет и не хранит электронные версии произведений, а лишь бесплатно и без коммерческой выгоды (не требуя взамен платы,
SMS и т.д.) предоставляет доступ к создаваемому пользователями каталогу ссылок на торрент-файлы, которые содержат только списки хеш-сумм.
Убедительная просьба с жалобами обращаться напрямую к пользователю, разместившему торрент файл.

Вверх