Loading...
Error

(Drum & Bass, Dubstep) Netsky - 2 (2012) [FLAC (Tracks+.CUE), Lossless]

Статистика раздачи
Размер:  468 MB   |    Зарегистрирован:  4 года 2 месяца   |    Скачан:  22 раза

Полного источника не было: 7 часов

Сидов:  0  |  0 KB/s  ]   Личеров:  0  |  0 KB/s  ]

* - сиды/пиры с внешних источников

   
 
Автор Сообщение

Бишеп Пол:Муж

20-Сен-2013 04:07

Netsky - 2

Жанр: Drum & Bass, Dubstep
Год выпуска: 2012
Производитель диска: Hospital Records - NHS213CD
Аудиокодек: FLAC
Тип рипа: Tracks+.CUE
Битрейт аудио: Lossless
Продолжительность: 00:58:27
Треклист:
01. Love Has Gone
02. The Whistle Song (feat Dynamite MC)
03. Wanna Die For You (feat Diane Charlemagne)
04. Come Alive
05. Give & Take
06. Get Away From Here (feat Selah Sue)
07. 911
08. Squad Up (feat Jimmy Jams)
09. Jetlag Funk
10. Puppy
11. When Darkness Falls (feat Bridgette Amofah)
12. Detonate
13. No Beginning
14. Dubplate Special
15. Drawing Straws

Exact Audio Copy V1.0 beta 3 from 29. August 2011

EAC extraction logfile from 23. June 2012, 18:49

Netsky / 2

Used drive : _NEC DVD_RW ND-4570A Adapter: 0 ID: 0

Read mode : Secure
Utilize accurate stream : Yes
Defeat audio cache : Yes
Make use of C2 pointers : No

Read offset correction : 48
Overread into Lead-In and Lead-Out : No
Fill up missing offset samples with silence : Yes
Delete leading and trailing silent blocks : No
Null samples used in CRC calculations : Yes
Used interface : Installed external ASPI interface
Gap handling : Appended to previous track

Used output format : User Defined Encoder
Selected bitrate : 1024 kBit/s
Quality : High
Add ID3 tag : No
Command line compressor : C:\Program Files\Exact Audio Copy\Flac\flac.exe
Additional command line options : -V -8 -T "Genre=%genre%" -T "Artist=%artist%" -T "Title=%title%" -T "Album=%albumtitle%" -T "Date=%year%" -T "Tracknumber=%tracknr%" -T "Comment=%comment%" %source%

TOC of the extracted CD

Track | Start | Length | Start sector | End sector
---------------------------------------------------------
1 | 0:00.00 | 4:11.14 | 0 | 18838
2 | 4:11.14 | 4:39.21 | 18839 | 39784
3 | 8:50.35 | 4:17.12 | 39785 | 59071
4 | 13:07.47 | 4:09.34 | 59072 | 77780
5 | 17:17.06 | 4:08.08 | 77781 | 96388
6 | 21:25.14 | 4:13.49 | 96389 | 115412
7 | 25:38.63 | 3:23.69 | 115413 | 130706
8 | 29:02.57 | 3:44.48 | 130707 | 147554
9 | 32:47.30 | 5:18.70 | 147555 | 171474
10 | 38:06.25 | 4:20.31 | 171475 | 191005
11 | 42:26.56 | 3:52.10 | 191006 | 208415
12 | 46:18.66 | 3:50.60 | 208416 | 225725
13 | 50:09.51 | 5:19.19 | 225726 | 249669
14 | 55:28.70 | 0:48.41 | 249670 | 253310
15 | 56:17.36 | 4:15.20 | 253311 | 272455

Track 1

Filename I:\Netsky - 2 [NHS213DD][FLAC] - 2012\01. Netsky - Love Has Gone.wav

Pre-gap length 0:00:02.00

Peak level 96.6 %
Extraction speed 3.2 X
Track quality 100.0 %
Test CRC 9196AD04
Copy CRC 9196AD04
Track not present in AccurateRip database
Copy OK

Track 2

Filename I:\Netsky - 2 [NHS213DD][FLAC] - 2012\02. Netsky - The Whistle Song (feat. Dynamite MC).wav

Peak level 96.6 %
Extraction speed 5.3 X
Track quality 100.0 %
Test CRC 97D82F0B
Copy CRC 97D82F0B
Track not present in AccurateRip database
Copy OK

Track 3

Filename I:\Netsky - 2 [NHS213DD][FLAC] - 2012\03. Netsky - Wanna Die For You (feat. Diane Charlemagne).wav

Peak level 96.5 %
Extraction speed 5.7 X
Track quality 100.0 %
Test CRC 9734E246
Copy CRC 9734E246
Track not present in AccurateRip database
Copy OK

Track 4

Filename I:\Netsky - 2 [NHS213DD][FLAC] - 2012\04. Netsky - Come Alive.wav

Peak level 96.5 %
Extraction speed 6.1 X
Track quality 100.0 %
Test CRC 7C5D0628
Copy CRC 7C5D0628
Track not present in AccurateRip database
Copy OK

Track 5

Filename I:\Netsky - 2 [NHS213DD][FLAC] - 2012\05. Netsky - Give & Take.wav

Peak level 96.6 %
Extraction speed 6.4 X
Track quality 100.0 %
Test CRC 55539F07
Copy CRC 55539F07
Track not present in AccurateRip database
Copy OK

Track 6

Filename I:\Netsky - 2 [NHS213DD][FLAC] - 2012\06. Netsky - Get Away From Here (feat. Selah Sue).wav

Peak level 96.6 %
Extraction speed 5.6 X
Track quality 99.9 %
Test CRC 24A9B893
Copy CRC 24A9B893
Track not present in AccurateRip database
Copy OK

Track 7

Filename I:\Netsky - 2 [NHS213DD][FLAC] - 2012\07. Netsky - 911.wav

Peak level 96.6 %
Extraction speed 6.7 X
Track quality 100.0 %
Test CRC 7BBE0306
Copy CRC 7BBE0306
Track not present in AccurateRip database
Copy OK

Track 8

Filename I:\Netsky - 2 [NHS213DD][FLAC] - 2012\08. Netsky - Squad Up (feat. Jimmy Jams).wav

Peak level 96.6 %
Extraction speed 7.2 X
Track quality 100.0 %
Test CRC 823DF234
Copy CRC 823DF234
Track not present in AccurateRip database
Copy OK

Track 9

Filename I:\Netsky - 2 [NHS213DD][FLAC] - 2012\09. Netsky - Jetlag Funk.wav

Peak level 96.6 %
Extraction speed 7.7 X
Track quality 100.0 %
Test CRC D6EAAD19
Copy CRC D6EAAD19
Track not present in AccurateRip database
Copy OK

Track 10

Filename I:\Netsky - 2 [NHS213DD][FLAC] - 2012\10. Netsky - Puppy.wav

Peak level 96.6 %
Extraction speed 7.9 X
Track quality 100.0 %
Test CRC F922DA1F
Copy CRC F922DA1F
Track not present in AccurateRip database
Copy OK

Track 11

Filename I:\Netsky - 2 [NHS213DD][FLAC] - 2012\11. Netsky - When Darkness Falls (feat. Bridgette Amofah).wav

Peak level 96.5 %
Extraction speed 8.0 X
Track quality 100.0 %
Test CRC 398F35C5
Copy CRC 398F35C5
Track not present in AccurateRip database
Copy OK

Track 12

Filename I:\Netsky - 2 [NHS213DD][FLAC] - 2012\12. Netsky - Detonate.wav

Peak level 96.5 %
Extraction speed 8.2 X
Track quality 100.0 %
Test CRC CF7F231D
Copy CRC CF7F231D
Track not present in AccurateRip database
Copy OK

Track 13

Filename I:\Netsky - 2 [NHS213DD][FLAC] - 2012\13. Netsky - No Beginning.wav

Peak level 96.6 %
Extraction speed 8.7 X
Track quality 100.0 %
Test CRC 887C6FB4
Copy CRC 887C6FB4
Track not present in AccurateRip database
Copy OK

Track 14

Filename I:\Netsky - 2 [NHS213DD][FLAC] - 2012\14. Netsky - Dubplate Special.wav

Peak level 89.1 %
Extraction speed 5.6 X
Track quality 100.0 %
Test CRC D32E50B9
Copy CRC D32E50B9
Track not present in AccurateRip database
Copy OK

Track 15

Filename I:\Netsky - 2 [NHS213DD][FLAC] - 2012\15. Netsky - Drawing Straws.wav

Peak level 96.6 %
Extraction speed 8.7 X
Track quality 100.0 %
Test CRC 1C6709CC
Copy CRC 1C6709CC
Track not present in AccurateRip database
Copy OK

None of the tracks are present in the AccurateRip database

No errors occurred

End of status report

==== Log checksum C1BB631FB909BE14359078BA60FA4D38D6B455161A3ED9F36DF4BEB6A29A59BF ====
REM GENRE "Drum & Bass"
REM DATE 2012
REM DISCID DC0E300F
REM COMMENT "ExactAudioCopy v1.0b3"
PERFORMER "Netsky"
TITLE "2"
FILE "01. Netsky - Love Has Gone.wav" WAVE
TRACK 01 AUDIO
TITLE "Love Has Gone"
PERFORMER "Netsky"
INDEX 01 00:00:00
FILE "02. Netsky - The Whistle Song (feat. Dynamite MC).wav" WAVE
TRACK 02 AUDIO
TITLE "The Whistle Song (feat. Dynamite MC)"
PERFORMER "Netsky"
INDEX 01 00:00:00
FILE "03. Netsky - Wanna Die For You (feat. Diane Charlemagne).wav" WAVE
TRACK 03 AUDIO
TITLE "Wanna Die For You (feat. Diane Charlemagne)"
PERFORMER "Netsky"
INDEX 01 00:00:00
FILE "04. Netsky - Come Alive.wav" WAVE
TRACK 04 AUDIO
TITLE "Come Alive"
PERFORMER "Netsky"
INDEX 01 00:00:00
FILE "05. Netsky - Give & Take.wav" WAVE
TRACK 05 AUDIO
TITLE "Give & Take"
PERFORMER "Netsky"
INDEX 01 00:00:00
FILE "06. Netsky - Get Away From Here (feat. Selah Sue).wav" WAVE
TRACK 06 AUDIO
TITLE "Get Away From Here (feat. Selah Sue)"
PERFORMER "Netsky"
INDEX 01 00:00:00
FILE "07. Netsky - 911.wav" WAVE
TRACK 07 AUDIO
TITLE "911"
PERFORMER "Netsky"
INDEX 01 00:00:00
FILE "08. Netsky - Squad Up (feat. Jimmy Jams).wav" WAVE
TRACK 08 AUDIO
TITLE "Squad Up (feat. Jimmy Jams)"
PERFORMER "Netsky"
INDEX 01 00:00:00
FILE "09. Netsky - Jetlag Funk.wav" WAVE
TRACK 09 AUDIO
TITLE "Jetlag Funk"
PERFORMER "Netsky"
INDEX 01 00:00:00
FILE "10. Netsky - Puppy.wav" WAVE
TRACK 10 AUDIO
TITLE "Puppy"
PERFORMER "Netsky"
INDEX 01 00:00:00
FILE "11. Netsky - When Darkness Falls (feat. Bridgette Amofah).wav" WAVE
TRACK 11 AUDIO
TITLE "When Darkness Falls (feat. Bridgette Amofah)"
PERFORMER "Netsky"
INDEX 01 00:00:00
FILE "12. Netsky - Detonate.wav" WAVE
TRACK 12 AUDIO
TITLE "Detonate"
PERFORMER "Netsky"
INDEX 01 00:00:00
FILE "13. Netsky - No Beginning.wav" WAVE
TRACK 13 AUDIO
TITLE "No Beginning"
PERFORMER "Netsky"
INDEX 01 00:00:00
FILE "14. Netsky - Dubplate Special.wav" WAVE
TRACK 14 AUDIO
TITLE "Dubplate Special"
PERFORMER "Netsky"
INDEX 01 00:00:00
FILE "15. Netsky - Drawing Straws.wav" WAVE
TRACK 15 AUDIO
TITLE "Drawing Straws"
PERFORMER "Netsky"
INDEX 01 00:00:00

Этот торрент недоступен для скачивания без регистрации, однако доступен по публичной magnet-ссылке (источники с публичных трекеров). Перед использованием ссылки прочтите, пожалуйста Пользовательское соглашение, а также как можно дольше оставайтесь на раздаче! Для того, чтобы скачать сам торрент-файл (который видит больше источников), а также для того, чтобы поблагодарить релизера, вам необходимо зарегистрироваться. Если регистрироваться лень - вы можете также попробовать скачать релиз по нашим партнерским ссылкам ниже.

[underverse.su].t31062.torrent
Трекер: Зарегистрирован   [ 20.09.2013 04:07 ]  

Статус: проверено (by Бишеп at 20.09.2013 04:07)
Поблагодарили: 2 человека
Тип торрента: публичный - доступные источники с открытых трекеров: 
Размер: 468 MB (занимает 0,1 DVDR, для записи нужно 1 болванка DVDR/RW)
 
 
Похожие темы
Форум Тема Автор Торрент Отв. Посл. сооб.
Drum & Bass, Jungle (Drum & Bass, Jungle) Dead Man's Chest - Throwing Shades (2017) [MP3, 320 kbps CBR] Darkferse
2 | 0

0 | 151

2

11.07.2017 08:59

Drum & Bass, Jungle (Drum & Bass) BCee - Thanks For Joining Us (2016) [MP3, 320 kbps] ANDRAKO
2 | 2

0 | 579

3

25.12.2016 07:29

Drum & Bass, Jungle (Drum & Bass) Blu Mar Ten - Empire State (2016) [MP3, 320 kbps] ANDRAKO
21 | 1

0 | 611

7

25.12.2016 07:08

Drum & Bass, Jungle (Drum & Bass) VA - Пиратская Станция Apocalypse (2012) [MP3, 320 kbps] PainKiler
0 | 0

2 | 1517

9

13.02.2012 20:44

Drum & Bass, Jungle (Drum & Bass) Hospitality Drum & Bass 2012 (Unmixed) (2012) [MP3, 320 kbps] PainKiler
0 | 0

1 | 1354

11

03.03.2014 11:20

Drum & Bass, Jungle (Drum & Bass) Straight Up Drum & Bass! (2012) [MP3, 320 kbps] PainKiler
0 | 0

0 | 1258

12

27.02.2012 08:35

Drum & Bass, Jungle (Drum & Bass) SPL - Forever Lost (2012) [MP3, 320 kbps] PainKiler
0 | 0

0 | 1324

9

06.03.2012 14:21

Drum & Bass, Jungle (Drum & Bass) VA - A.R.M.O.R. 2 (2012) [MP3, 320 kbps] PainKiler
0 | 0

0 | 1506

7

17.03.2012 11:36

Drum & Bass, Jungle (Drum & Bass) Netsky - 2 (2012) [MP3, 320 kbps] razor123
0 | 0

1 | 1459

1

15.08.2012 14:20

Drum & Bass, Jungle (Drum & Bass, Drumstep, Dubstep, Garage) Netsky - 2 (Deluxe) (2012) [MP3, 320 kbps CBR] terra07
3 | 0

1 | 1835

30

08.04.2015 15:06


Яндекс.Метрика powered by Sphinx


В Н И М А Н И Е
Сайт не распространяет и не хранит электронные версии произведений, а лишь бесплатно и без коммерческой выгоды (не требуя взамен платы,
SMS и т.д.) предоставляет доступ к создаваемому пользователями каталогу ссылок на торрент-файлы, которые содержат только списки хеш-сумм.
Убедительная просьба с жалобами обращаться напрямую к пользователю, разместившему торрент файл.

Вверх