Loading...
Error

Поющие трусы - Тазик оливье (Клип) [2009 г., Pop, DVD]

Статистика раздачи
Размер:  142 MB   |    Зарегистрирован:  4 года 6 месяцев   |    Скачан:  5 раз

Полного источника не было: 1 месяц

Сидов:  0  |  0 KB/s  ]   Личеров:  0  |  0 KB/s  ]

* - сиды/пиры с внешних источников

   
 
Автор Сообщение

Бишеп Пол:Муж

17-Май-2013 15:09

Поющие трусы - Тазик оливье (Клип)
Жанр: Pop
Страна: Украина
Год выпуска: 2009
Качество видео: DVD

Продолжительность: 00:03:47

Формат: vob
Видео: MPEG-2 Video, 720x576, 4857 kbps
Аудио: русский, AC3 2.0, 192 kbps

Код:

General
Complete name                    : D:\Desktop\Поющие Трусы - Тазик оливье.VOB
Format                           : MPEG-PS
File size                        : 142 MiB
Duration                         : 3mn 47s
Overall bit rate                 : 5 258 Kbps

Video
ID                               : 224 (0xE0)
Format                           : MPEG Video
Format version                   : Version 2
Format profile                   : Main@Main
Format settings, Matrix          : Default
Duration                         : 3mn 47s
Bit rate mode                    : Variable
Bit rate                         : 4 857 Kbps
Nominal bit rate                 : 7 000 Kbps
Width                            : 720 pixels
Height                           : 576 pixels
Display aspect ratio             : 4/3
Frame rate                       : 25.000 fps
Standard                         : PAL
Colorimetry                      : 4:2:0
Scan type                        : Interlaced
Scan order                       : Top Field First
Bits/(Pixel*Frame)               : 0.468
Stream size                      : 131 MiB (92%)

Audio
ID                               : 128 (0x80)
Format                           : AC-3
Format/Info                      : Audio Coding 3
Duration                         : 3mn 46s
Bit rate mode                    : Constant
Bit rate                         : 192 Kbps
Channel(s)                       : 2 channels
Channel positions                : L R
Sampling rate                    : 48.0 KHz
Stream size                      : 5.19 MiB (4%)

Menu
Format                           : DVD-Video

picpicpic
Для увеличения картинки щелкните мышкой по превью

Этот торрент недоступен для скачивания без регистрации, однако доступен по публичной magnet-ссылке (источники с публичных трекеров). Перед использованием ссылки прочтите, пожалуйста Пользовательское соглашение, а также как можно дольше оставайтесь на раздаче! Для того, чтобы скачать сам торрент-файл (который видит больше источников), а также для того, чтобы поблагодарить релизера, вам необходимо зарегистрироваться. Если регистрироваться лень - вы можете также попробовать скачать релиз по нашим партнерским ссылкам ниже.

[underverse.su].t27585.torrent
Трекер: Зарегистрирован   [ 17.05.2013 15:09 ]  

Статус: проверено (by Бишеп at 17.05.2013 15:47)
Поблагодарили: пока никто не поблагодарил...
Тип торрента: публичный - доступные источники с открытых трекеров: 
Размер: 142 MB (занимает 0,03 DVDR, для записи нужно 1 болванка DVDR/RW)
 
 

Яндекс.Метрика powered by Sphinx


В Н И М А Н И Е
Сайт не распространяет и не хранит электронные версии произведений, а лишь бесплатно и без коммерческой выгоды (не требуя взамен платы,
SMS и т.д.) предоставляет доступ к создаваемому пользователями каталогу ссылок на торрент-файлы, которые содержат только списки хеш-сумм.
Убедительная просьба с жалобами обращаться напрямую к пользователю, разместившему торрент файл.

Вверх