Loading...
Error

(Trance) Armin van Buuren - Mirage (2010) [FLAC (Image+.CUE), Lossless]

Статистика раздачи
Размер:  710 MB   |    Зарегистрирован:  5 лет   |    Скачан:  1 раз

Полного источника не было: 11 дней

Сидов:  0  |  0 KB/s  ]   Личеров:  0  |  0 KB/s  ]

* - сиды/пиры с внешних источников

   
 
Автор Сообщение

Бишеп Пол:Муж

29-Апр-2013 07:36

Armin van Buuren - Mirage

Жанр: Trance
Год выпуска: 2010
Производитель диска: Armada Music ARMA263
Аудиокодек: FLAC
Тип рипа: Image+.CUE
Битрейт аудио: Lossless
Продолжительность: 01:19:43
Треклист:
01. Desiderium 207 (feat. Susana)
02. Mirage
03. This Light Between Us (feat. Christian Burns)
04. Not Giving Up On Love (Armin van Buuren vs Sophie Ellis-Bextor)
05. I Don't Own You
06. Full Focus
07. Take A Moment (feat. Winter Kills)
08. Feels So Good (feat. Nadia Ali)
09. Virtual Friend (feat. Sophie)
10. Drowning (feat. Laura V)
11. Down To Love (feat. Ana Criado)
12. Coming Home
13. These Silent Hearts (feat. BT)
14. Orbion
15. Minack (Armin van Buuren vs Ferry Corsten)
16. Youtopia (feat. Adam Young)
Exact Audio Copy V1.0 beta 3 from 29. August 2011

EAC extraction logfile from 21. July 2012, 15:40

Armin van Buuren / Mirage

Used drive : Optiarc DVD RW AD-7200S Adapter: 1 ID: 5

Read mode : Secure
Utilize accurate stream : Yes
Defeat audio cache : Yes
Make use of C2 pointers : No

Read offset correction : 48
Overread into Lead-In and Lead-Out : No
Fill up missing offset samples with silence : Yes
Delete leading and trailing silent blocks : No
Null samples used in CRC calculations : Yes
Used interface : Native Win32 interface for Win NT & 2000

Used output format : User Defined Encoder
Selected bitrate : 768 kBit/s
Quality : High
Add ID3 tag : No
Command line compressor : C:\Program Files (x86)\Exact Audio Copy\Flac\flac.exe
Additional command line options : -V -8 -T "Artist=%artist%" -T "Title=%title%" -T "Album=%albumtitle%" -T "Date=%year%" -T "Tracknumber=%tracknr%" -T "Genre=%genre%" -T "Comment=ripped by alxsha" %source%

TOC of the extracted CD

Track | Start | Length | Start sector | End sector
---------------------------------------------------------
1 | 0:00.00 | 2:08.35 | 0 | 9634
2 | 2:08.35 | 6:41.50 | 9635 | 39759
3 | 8:50.10 | 5:09.30 | 39760 | 62964
4 | 13:59.40 | 2:53.57 | 62965 | 75996
5 | 16:53.22 | 6:45.08 | 75997 | 106379
6 | 23:38.30 | 4:41.57 | 106380 | 127511
7 | 28:20.12 | 5:02.40 | 127512 | 150201
8 | 33:22.52 | 3:58.40 | 150202 | 168091
9 | 37:21.17 | 7:11.65 | 168092 | 200481
10 | 44:33.07 | 2:44.23 | 200482 | 212804
11 | 47:17.30 | 4:15.02 | 212805 | 231931
12 | 51:32.32 | 6:20.18 | 231932 | 260449
13 | 57:52.50 | 5:48.65 | 260450 | 286614
14 | 63:41.40 | 5:17.55 | 286615 | 310444
15 | 68:59.20 | 6:43.55 | 310445 | 340724
16 | 75:43.00 | 3:59.67 | 340725 | 358716

Range status and errors

Selected range

Filename D:\Armin van Buuren - Mirage.wav

Peak level 100.0 %
Extraction speed 4.6 X
Range quality 100.0 %
Test CRC 590DC202
Copy CRC 590DC202
Copy OK

No errors occurred

AccurateRip summary
Track 1 accurately ripped (confidence 10) [5AC8F78A] (AR v2)
Track 2 accurately ripped (confidence 10) [0A899297] (AR v2)
Track 3 accurately ripped (confidence 10) [8EB15557] (AR v2)
Track 4 accurately ripped (confidence 10) [8EEC8D08] (AR v2)
Track 5 accurately ripped (confidence 10) [5CD2E10E] (AR v2)
Track 6 accurately ripped (confidence 9) [35879B84] (AR v2)
Track 7 accurately ripped (confidence 9) [7B20BF8F] (AR v2)
Track 8 accurately ripped (confidence 9) [35FBF153] (AR v2)
Track 9 accurately ripped (confidence 9) [C21567E0] (AR v2)
Track 10 accurately ripped (confidence 9) [C28093F2] (AR v2)
Track 11 accurately ripped (confidence 9) [14D35C43] (AR v2)
Track 12 accurately ripped (confidence 9) [D7308823] (AR v2)
Track 13 accurately ripped (confidence 9) [B0006B96] (AR v2)
Track 14 accurately ripped (confidence 9) [8876D02F] (AR v2)
Track 15 accurately ripped (confidence 9) [3FA4F47B] (AR v2)
Track 16 accurately ripped (confidence 9) [C1C78187] (AR v2)
All tracks accurately ripped

End of status report

==== Log checksum 89AB501CCE43918949B8C821AE4437A621E283D59C6C77A66875592E60F3AB58 ====

AUDIOCHECKER v2.0 beta (build 457) - by Dester - opdester@freemail.hu
~~~~~~~~~~~~~~~~~~~~~~~~~~~~~~~~~~
-=== DO NOT EDIT THIS FILE! ===-

Path: ...\Armin van Buuren - Mirage (2010) (ARMA263)

1 -=- Armin van Buuren - Mirage.flac -=- CDDA (100%)

103709988

Этот торрент недоступен для скачивания без регистрации, однако доступен по публичной magnet-ссылке (источники с публичных трекеров). Перед использованием ссылки прочтите, пожалуйста Пользовательское соглашение, а также как можно дольше оставайтесь на раздаче! Для того, чтобы скачать сам торрент-файл (который видит больше источников), а также для того, чтобы поблагодарить релизера, вам необходимо зарегистрироваться. Если регистрироваться лень - вы можете также попробовать скачать релиз по нашим партнерским ссылкам ниже. Кроме того, зарегистрированным пользователям не показывается всплывающая реклама при скачивании.

[underverse.su].t26819.torrent
Трекер: Зарегистрирован   [ 29.04.2013 07:36 ]  

Статус: проверено (by Бишеп at 29.04.2013 07:38)
Поблагодарили: 1 человек
Тип торрента: публичный - доступные источники с открытых трекеров: 
Размер: 710 MB (занимает 0,16 DVDR, для записи нужно 1 болванка DVDR/RW)
 
 
Похожие темы
Форум Тема Автор Торрент Отв. Посл. сооб.
Trance (Trance) Aly & Fila - Beyond The Lights (2017) [MP3, 320 kbps CBR] Darkferse
7 | 2

0 | 462

4

18.09.2017 08:45

Trance (Trance) Aurosonic & Denis Karpinsky & Kate Louise Smith - Heaven (2017) [MP3, 320 kbps CBR] Darkferse
3 | 0

0 | 610

1

11.04.2017 20:29

Trance (Trance) Armin van Buuren - The Best Of Armin Only (Special Edition) (2017) [MP3, 320 kbps CBR] Darkferse
0 | 0

0 | 877

11

14.05.2017 09:37

Trance (Trance) Amine Maxwell - Her Soul (2017) [MP3, 320 kbps CBR] Darkferse
1 | 0

0 | 313

1

06.06.2017 16:11

Trance (Trance) Alex Di Stefano - Split (2017) [MP3, 320 kbps CBR] Darkferse
3 | 0

0 | 357

2

06.06.2017 16:17

Trance (Trance) Airwave - The Unfinished (2017) [MP3, 320 kbps CBR] Darkferse
1 | 0

0 | 280

2

10.06.2017 09:05

Сборники (Trance) Armin van Buuren - Intense: The More Intense Edition (2CD) (2013) [MP3, 320 kbps CBR] terra07
10 | 1

0 | 860

10

27.01.2014 11:43

# Trance, GoaTrance, PsyTrance (Lossless) (Trance) Armin van Buuren - A State Of Trance 2013 (2013) [FLAC (Image+.CUE), Lossless] Бишеп
1 | 0

1 | 1898

32

16.11.2013 13:06

Trance, GoaTrance, PsyTrance (Lossless) (Trance) Armin van Buuren - Together (In A State Of Trance) (ASOT Festival Anthem) (2015) [FLAC (Tracks+.CUE), Lossless] Бишеп
1 | 0

0 | 140

4

03.05.2018 06:44

* Архив (электронная музыка) (Trance) Anna Lee - Club Styles 167 (01.07.2009) [MP3, 192 kbps] yaha

2 | 1063

30.08.2010 01:30

03-Июн-2013 07:00

Топик был перенесен из форума Trance, GoaTrance, PsyTrance (Lossless) в форум Архив


Бишеп
 

Яндекс.Метрика powered by Sphinx


В Н И М А Н И Е
Сайт не распространяет и не хранит электронные версии произведений, а лишь бесплатно и без коммерческой выгоды (не требуя взамен платы,
SMS и т.д.) предоставляет доступ к создаваемому пользователями каталогу ссылок на торрент-файлы, которые содержат только списки хеш-сумм.
Убедительная просьба с жалобами обращаться напрямую к пользователю, разместившему торрент файл.

Вверх