Loading...
Error

Comedy Woman (Выпуски 91-108) [2012-2013 г., Юмор, SatRip]

Статистика раздачи
Размер:  9,64 GB   |    Зарегистрирован:  4 года 6 месяцев   |    Скачан:  50 раз

Полного источника не было: 11 месяцев

Сидов:  0  |  0 KB/s  ]   Личеров:  0  |  0 KB/s  ]

* - сиды/пиры с внешних источников

   
 
Автор Сообщение

SHuRuP Пол:Муж

08-Апр-2013 04:21

Comedy Woman


Год выпуска: 2012-2013
Жанр: Юмор
Страна: Россия
В ролях: Резиденты "Comedy Woman"
Описание:
Вы думаете, что у женщин нет чувства юмора?
Что они смеются только после 3х коктейлей и обязательно невпопад?
Что когда женщина пытается шутить, то лучше вежливо улыбнуться
и перевести разговор на другую тему? Так вот, Вы абсолютно правы и эта передача не для Вас!
А Вы считаете, что женщина тоже человек и с ней можно даже иногда поговорить?
Что женщина создана не только для домашнего хозяйства, но и для совместного просмотра телевизора
и совместных прогулок на свежем воздухе? Так Вы тоже правы!
Но эта передача рекомендуется тем, кто верит в женский юмор
и хочет порадовать себя не только внешним видом участниц,
но и текстами и актёрской игрой. Эти девушки знакомы нам по выступлениям в КВН,
а теперь они отправились в свободное творческое плавание. Встречайте аплодисментами!
Качество видео: SatRip

Продолжительность: 00:47:38
Формат: avi
Видео: XviD, 720x400, 1508 kbps
Аудио: русский, оригинал, MP3 1, 96 kbps

Код:

General
Complete name                    : H:\Post-KVN\CW\S_4\post.kvn.comedy.woman.(91).www.kvnforall.info.avi
Format                           : AVI
Format/Info                      : Audio Video Interleave
File size                        : 550 MiB
Duration                         : 47mn 38s
Overall bit rate                 : 1 615 Kbps
Writing library                  : VirtualDub build 32842/release

Video
ID                               : 0
Format                           : MPEG-4 Visual
Format profile                   : Streaming Video@L1
Format settings, BVOP            : Yes
Format settings, QPel            : No
Format settings, GMC             : No warppoints
Format settings, Matrix          : Default (MPEG)
Codec ID                         : XVID
Codec ID/Hint                    : XviD
Duration                         : 47mn 38s
Bit rate                         : 1 509 Kbps
Width                            : 720 pixels
Height                           : 400 pixels
Display aspect ratio             : 16/9
Frame rate                       : 25.000 fps
Resolution                       : 24 bits
Colorimetry                      : 4:2:0
Scan type                        : Progressive
Bits/(Pixel*Frame)               : 0.210
Stream size                      : 514 MiB (93%)
Writing library                  : XviD 1.2.1 (UTC 2008-12-04)

Audio
ID                               : 1
Format                           : MPEG Audio
Format version                   : Version 1
Format profile                   : Layer 3
Codec ID                         : 55
Codec ID/Hint                    : MP3
Duration                         : 47mn 38s
Bit rate mode                    : Constant
Bit rate                         : 96.0 Kbps
Channel(s)                       : 1 channel
Sampling rate                    : 48.0 KHz
Resolution                       : 16 bits
Stream size                      : 32.7 MiB (6%)
Alignment                        : Split accross interleaves
Interleave, duration             : 40 ms (1.00 video frame)
Interleave, preload duration     : 500 ms
Раздача ведётся путём добавления новых серий; при каждом добавлении создётся новый торрент. Чтобы начать докачку новой серии, пользователям необходимо сделать следующее:
(1) остановить скачивание,
(2) удалить старый торрент у себя из клиента (старые серии удалять не надо),
(3) скачать новый торрент и запустить его у себя в клиенте вместо старого, при этом указать клиенту путь в старую папку куда и должно происходить скачивание новых серий.
Ваш клиент при этом должен произвести хеширование (проверку) старой папки (если не производит сам - помогите ему сделать это), и будет докачивать только те серии которых у вас ещё нет. Старые серии при этом не удаляются, а продолжают раздаваться!
Eсли вы уже удалили старые серии, то предотвратить повторную закачку старых серий можно, отжав галочку в соответсвующих местах при запуске нового торрента. По возможности, желательно не удалять старые серии как можно дольше чтобы релизёр не столько продолжал раздавать старые серии, а смог сконцентрироваться на новых.
Релиз группы:

picpicpicpic
Для увеличения картинки щелкните мышкой по превью

Этот торрент недоступен для скачивания без регистрации, однако доступен по публичной magnet-ссылке (источники с публичных трекеров). Перед использованием ссылки прочтите, пожалуйста Пользовательское соглашение, а также как можно дольше оставайтесь на раздаче! Для того, чтобы скачать сам торрент-файл (который видит больше источников), а также для того, чтобы поблагодарить релизера, вам необходимо зарегистрироваться. Если регистрироваться лень - вы можете также попробовать скачать релиз по нашим партнерским ссылкам ниже.

[underverse.su].t25919.torrent
Трекер: Зарегистрирован   [ 04.06.2013 19:46 ]  

Статус: проверено (by SHuRuP at 04.06.2013 19:47)
Поблагодарили: 6 человек
Тип торрента: публичный - доступные источники с открытых трекеров: 
Размер: 9,64 GB (занимает 2,2 DVDR, для записи нужно 3 болванки DVDR/RW)
 
 
Похожие темы
Форум Тема Автор Торрент Отв. Посл. сооб.
Comedy Club Comedy Woman (Выпуски 1-30) + Made in Woman (Выпуски 1-4) (2008-2010) SATRip [2008-2010 г., Юмор, SatRip] SHuRuP
0 | 0

4 | 6785

31

22.09.2012 22:49

Comedy Club Comedy Woman (Выпуски 31-62) (2010-2012) SATRip [2010-2012 г., Юмор, SatRip] SHuRuP
0 | 0

23 | 9762

5

08.04.2013 03:39

Comedy Club Comedy Woman (Выпуски 61-90) (2011-2012) SATRip [2011-2012 г., Юмор, SatRip] SHuRuP
0 | 0

33 | 16287

38

08.04.2013 04:34

Comedy Club Comedy Woman [Эфир 10.01] [2014 г., Юмор, WEB-DLRip 720p] Чертёнок
0 | 0

0 | 2229

24

10.01.2014 18:14

Comedy Club Comedy Woman. Новогодний выпуск [Эфир 30.12] (Дмитрий Хрусталёв) [2014 г., юмористическое шоу, SATRip] Паукан
0 | 0

0 | 1327

12

31.12.2014 12:05



Последний раз редактировалось: SHuRuP (04.06.2013 19:46), всего редактировалось 4 раз(а)

SHuRuP Пол:Муж

19-Апр-2013 10:33

Добавлен выпуск 102

SHuRuP Пол:Муж

28-Апр-2013 21:05

Добавлены выпуски 103 и 104

SHuRuP Пол:Муж

10-Май-2013 17:59

Добавлен выпуск 105

SHuRuP Пол:Муж

24-Май-2013 23:18

Добавлены выпуски 106 и 107

SHuRuP Пол:Муж

04-Июн-2013 19:46

Добавлен выпуск 108

Яндекс.Метрика powered by Sphinx


В Н И М А Н И Е
Сайт не распространяет и не хранит электронные версии произведений, а лишь бесплатно и без коммерческой выгоды (не требуя взамен платы,
SMS и т.д.) предоставляет доступ к создаваемому пользователями каталогу ссылок на торрент-файлы, которые содержат только списки хеш-сумм.
Убедительная просьба с жалобами обращаться напрямую к пользователю, разместившему торрент файл.

Вверх