Loading...
Error

Самсара / Samsara [2011 г., документальный, BDRip 720p] перевод не требуется (фильм видовой)

Статистика раздачи
Размер:  4,36 GB   |    Зарегистрирован:  4 года 10 месяцев   |    Скачан:  20 раз

Полного источника не было: 20 дней

Сидов:  0  |  0 KB/s  ]   Личеров:  0  |  0 KB/s  ]

* - сиды/пиры с внешних источников

   
 
Автор Сообщение

Доктор Ватсон Пол:Муж

04-Янв-2013 20:49

Самсара / Samsara


Год выпуска: 2011
Жанр: документальный
Страна: США , Канада
Режиссер: Рон Фрике / Ron Fricke
Сюжет фильма:
Долгожданное продолжение эпохального фильма 1992 года "Baraka".
Праздник для глаз и для ума, этот фильм, как и его предшественник, просто переворачивает восприятие мира - истории, природы, человеческого общества, религий, войны, искусства, течения времени, человеческих цивилизаций, вечности.
"Самсара" в переводе с санскрита — «вечно движущееся колесо», или «цикличное существование». Фильм, снятый полностью на 70-миллиметровую пленку, представляет собой полуторачасовое путешествие по самым удивительным местам планеты (всего в фильме покажут 25 стран на 5 континентах).
Качество видео: BDRip 720p

Продолжительность: 01:42:05
Формат: MKV
Видео: x264, 1280x536, 4610 kbps
Аудио: перевод не требуется, DTS 5.1, 1509 kbps

Код:

eneral
Complete name : F:\samsara.720p.mkv
Format : Matroska
Format version : Version 2
File size : 4.36 GiB
Duration : 1h 42mn
Overall bit rate : 6 120 Kbps
Writing application : mkvmerge v4.1.1 ('Bouncin' Back') built on Jul 3 2010 22:54:08
Writing library : libebml v1.0.0 + libmatroska v1.0

Video
ID : 1
Format : AVC
Format/Info : Advanced Video Codec
Format profile : High@L4.1
Format settings, CABAC : Yes
Format settings, ReFrames : 5 frames
Codec ID : V_MPEG4/ISO/AVC
Duration : 1h 42mn
Bit rate : 4 610 Kbps
Width : 1 280 pixels
Height : 536 pixels
Display aspect ratio : 2.40:1
Frame rate : 23.976 fps
Color space : YUV
Chroma subsampling : 4:2:0
Bit depth : 8 bits
Scan type : Progressive
Bits/(Pixel*Frame) : 0.280
Stream size : 3.20 GiB (73%)
Writing library : x264 core 129 r2230 1cffe9f
Encoding settings : cabac=1 / ref=5 / deblock=1:0:0 / analyse=0x3:0x133 / me=umh / subme=7 / psy=1 / psy_rd=1.00:0.00 / mixed_ref=1 / me_range=16 / chroma_me=1 / trellis=1 / 8x8dct=1 / cqm=0 / deadzone=21,11 / fast_pskip=0 / chroma_qp_offset=-2 / threads=12 / lookahead_threads=2 / sliced_threads=0 / nr=0 / decimate=1 / interlaced=0 / bluray_compat=0 / constrained_intra=0 / bframes=3 / b_pyramid=2 / b_adapt=1 / b_bias=0 / direct=1 / weightb=1 / open_gop=0 / weightp=2 / keyint=250 / keyint_min=23 / scenecut=40 / intra_refresh=0 / rc_lookahead=40 / rc=2pass / mbtree=1 / bitrate=4610 / ratetol=1.0 / qcomp=0.60 / qpmin=0 / qpmax=69 / qpstep=4 / cplxblur=20.0 / qblur=0.5 / ip_ratio=1.40 / aq=1:1.00
Language : English
Default : Yes
Forced : No

Audio
ID : 2
Format : DTS
Format/Info : Digital Theater Systems
Codec ID : A_DTS
Duration : 1h 42mn
Bit rate mode : Constant
Bit rate : 1 510 Kbps
Channel(s) : 6 channels
Channel positions : Front: L C R, Side: L R, LFE
Sampling rate : 48.0 KHz
Bit depth : 24 bits
Compression mode : Lossy
Stream size : 1.08 GiB (25%)
Language : English
Default : Yes
Forced : No

Menu
00:00:00.000 : en:00:00:00.000
00:01:50.110 : en:00:01:50.110
00:05:13.313 : en:00:05:13.313
00:07:57.644 : en:00:07:57.644
00:12:34.045 : en:00:12:34.045
00:16:06.924 : en:00:16:06.924
00:19:32.088 : en:00:19:32.088
00:24:17.122 : en:00:24:17.122
00:30:33.040 : en:00:30:33.040
00:33:40.227 : en:00:33:40.227
00:36:18.885 : en:00:36:18.885
00:39:56.603 : en:00:39:56.603
00:44:45.182 : en:00:44:45.182
00:47:03.904 : en:00:47:03.904
00:48:45.506 : en:00:48:45.506
00:49:57.203 : en:00:49:57.203
00:55:29.034 : en:00:55:29.034
00:56:44.651 : en:00:56:44.651
01:01:24.598 : en:01:01:24.598
01:03:41.192 : en:01:03:41.192
01:06:39.329 : en:01:06:39.329
01:10:23.636 : en:01:10:23.636
01:13:41.500 : en:01:13:41.500
01:17:03.911 : en:01:17:03.911
01:18:59.234 : en:01:18:59.234
01:22:54.344 : en:01:22:54.344
01:28:11.077 : en:01:28:11.077
01:29:22.524 : en:01:29:22.524
01:32:14.028 : en:01:32:14.028
01:35:27.722 : en:01:35:27.722
picpicpic
Для увеличения картинки щелкните мышкой по превью

Этот торрент недоступен для скачивания без регистрации, однако доступен по публичной magnet-ссылке (источники с публичных трекеров). Перед использованием ссылки прочтите, пожалуйста Пользовательское соглашение, а также как можно дольше оставайтесь на раздаче! Для того, чтобы скачать сам торрент-файл (который видит больше источников), а также для того, чтобы поблагодарить релизера, вам необходимо зарегистрироваться. Если регистрироваться лень - вы можете также попробовать скачать релиз по нашим партнерским ссылкам ниже.

[underverse.su].t23015.torrent
Трекер: Зарегистрирован   [ 04.01.2013 20:49 ]  

Статус: проверено (by Паукан at 04.01.2013 20:57)
Поблагодарили: 1 человек
Тип торрента: публичный - доступные источники с открытых трекеров: 
Размер: 4,36 GB (занимает 1 DVDR, для записи нужно 1 болванка DVDR/RW)
 
 
Похожие темы
Форум Тема Автор Торрент Отв. Посл. сооб.
Другие фильмы Самсара / Samsara (Рон Фрике) [2011 г., документальный, HDRip] RG NewCinema
0 | 0

1 | 1536

39

29.09.2013 10:33

04-Янв-2013 20:56

Топик был перенесен из форума Документальные фильмы HQ в форум Документальное кино HD DVD & Blu-Ray Rip's


dj_maxx
 

Яндекс.Метрика powered by Sphinx


В Н И М А Н И Е
Сайт не распространяет и не хранит электронные версии произведений, а лишь бесплатно и без коммерческой выгоды (не требуя взамен платы,
SMS и т.д.) предоставляет доступ к создаваемому пользователями каталогу ссылок на торрент-файлы, которые содержат только списки хеш-сумм.
Убедительная просьба с жалобами обращаться напрямую к пользователю, разместившему торрент файл.

Вверх