Loading...
Error

Золушка 3: Злые чары / Cinderella III: A Twist in Time (Фрэнк Ниссен) [2007 г., мультфильм, фэнтези, мелодрама, семейный, BDRip 720p] Dub + DVO + AVO + Original

Статистика раздачи
Размер:  3,15 GB   |    Зарегистрирован:  5 лет 5 месяцев   |    Скачан:  22 раза

Полного источника не было: 2 месяца 9 дней

Сидов:  0  |  0 KB/s  ]   Личеров:  0  |  0 KB/s  ]

* - сиды/пиры с внешних источников

   
 
Автор Сообщение

garry Пол:Муж

08-Дек-2012 23:55

Золушка 3: Злые чары / Cinderella III: A Twist in Time


Год выпуска: 2007
Жанр: мультфильм, фэнтези, мелодрама, семейный
Страна: США
Режиссер: Фрэнк Ниссен
В ролях: Дженнифер Хейл, Сьюзан Блэйксли, Тресс МакНилл, Кристофер Дэниэл Барнс, Расси Тейлор, Андрэ Стойка, Холланд Тейлор, Роб Полсен, Кори Бертон, Фрэнк Уэлкер
Сюжет фильма:
Злая мачеха вызывает заклинание, которое уничтожает все, что сделала Крестная. Все, что она создала (платье, лошади и карета), все с помощью чего Золушка попала на Бал — действует теперь на пользу мачехе и ее дочерям. Теперь, когда волшебство исчезло, будет ли у сказки счастливый конец? Что будет делать Золушка?

Качество видео: BDRip 720p

Продолжительность: 01:13:57
Формат: MKV
Видео: x264, 1276x720, 3529 kbps
Аудио #1: русский, дублированный [лицензия, cтудия Пифагор, BD CEE], AC3 5.1, 640 kbps
Аудио #2: русский, двухголосый закадровый [профессиональный, Гланц и Фищук], AC3 5.1, 640 kbps
Аудио #3: русский, одноголосый закадровый [Дольский], AC3 5.1, 640 kbps
Аудио #4: английский, оригинал, AC3 5.1, 640 kbps
Субтитры #1: тип: вшитые отключаемые, русский, формат: SRT
Субтитры #2: тип: вшитые отключаемые, украинский, формат: SRT
Субтитры #3: тип: вшитые отключаемые, английский, формат: SRT
Субтитры #4: тип: вшитые отключаемые, английский SDH, формат: SRT

Код:

General
Unique ID                                : 181415625603937665125200652018032350003 (0x887B60EA299BE39983D37E4F8CBC9333)
Complete name                            : Cinderella.3.A.Twist.in.Time.2007.BDRip.720p.rutracker.mkv
Format                                   : Matroska
Format version                           : Version 2
File size                                : 3.15 GiB
Duration                                 : 1h 13mn
Overall bit rate                         : 6 092 Kbps
Movie name                               : Cinderella III: A Twist in Time (2007) BDRip 720p
Encoded date                             : UTC 2012-11-21 16:54:51
Writing application                      : mkvmerge v5.8.0 ('No Sleep / Pillow') built on Sep  2 2012 15:37:04
Writing library                          : libebml v1.2.3 + libmatroska v1.3.0

Video
ID                                       : 1
Format                                   : AVC
Format/Info                              : Advanced Video Codec
Format profile                           : High@L4.1
Format settings, CABAC                   : Yes
Format settings, ReFrames                : 9 frames
Codec ID                                 : V_MPEG4/ISO/AVC
Duration                                 : 1h 13mn
Bit rate                                 : 3 411 Kbps
Width                                    : 1 276 pixels
Height                                   : 720 pixels
Display aspect ratio                     : 16:9
Frame rate mode                          : Constant
Frame rate                               : 23.976 fps
Color space                              : YUV
Chroma subsampling                       : 4:2:0
Bit depth                                : 8 bits
Scan type                                : Progressive
Bits/(Pixel*Frame)                       : 0.155
Stream size                              : 1.76 GiB (56%)
Title                                    : BDRip 720p / xfiles / РГ Мультфильмы / *другой трекер*
Writing library                          : x264 core 128 r2216kMod 198a7ea
Encoding settings                        : cabac=1 / ref=9 / deblock=1:-1:-1 / analyse=0x3:0x113 / me=umh / subme=11 / psy=1 / fade_compensate=0.00 / psy_rd=0.60:0.00 / mixed_ref=1 / me_range=48 / chroma_me=1 / trellis=2 / 8x8dct=1 / cqm=0 / deadzone=21,11 / fast_pskip=0 / chroma_qp_offset=-2 / threads=6 / lookahead_threads=1 / sliced_threads=0 / nr=0 / decimate=1 / interlaced=0 / bluray_compat=0 / constrained_intra=0 / bframes=10 / b_pyramid=2 / b_adapt=2 / b_bias=0 / direct=1 / weightb=1 / open_gop=0 / weightp=2 / keyint=250 / keyint_min=23 / scenecut=40 / intra_refresh=0 / rc=crf / mbtree=0 / crf=15.0000 / qcomp=0.60 / qpmin=0 / qpmax=69 / qpstep=4 / ip_ratio=1.40 / pb_ratio=1.30 / aq=2:1.00
Language                                 : English
Default                                  : Yes
Forced                                   : No
Color primaries                          : BT.709
Transfer characteristics                 : BT.709
Matrix coefficients                      : BT.709

Audio #1
ID                                       : 2
Format                                   : AC-3
Format/Info                              : Audio Coding 3
Mode extension                           : CM (complete main)
Format settings, Endianness              : Big
Codec ID                                 : A_AC3
Duration                                 : 1h 13mn
Bit rate mode                            : Constant
Bit rate                                 : 640 Kbps
Channel(s)                               : 6 channels
Channel positions                        : Front: L C R, Side: L R, LFE
Sampling rate                            : 48.0 KHz
Bit depth                                : 16 bits
Compression mode                         : Lossy
Stream size                              : 339 MiB (11%)
Title                                    : Дубляж | Студия Пифагор | BD CEE
Language                                 : Russian
Default                                  : Yes
Forced                                   : No

Audio #2
ID                                       : 3
Format                                   : AC-3
Format/Info                              : Audio Coding 3
Mode extension                           : CM (complete main)
Format settings, Endianness              : Big
Codec ID                                 : A_AC3
Duration                                 : 1h 13mn
Bit rate mode                            : Constant
Bit rate                                 : 640 Kbps
Channel(s)                               : 6 channels
Channel positions                        : Front: L C R, Side: L R, LFE
Sampling rate                            : 48.0 KHz
Bit depth                                : 16 bits
Compression mode                         : Lossy
Stream size                              : 339 MiB (11%)
Title                                    : Двухголосый закадровый | Петр Гланц и Наталья Фищук
Language                                 : Russian
Default                                  : No
Forced                                   : No

Audio #3
ID                                       : 4
Format                                   : AC-3
Format/Info                              : Audio Coding 3
Mode extension                           : CM (complete main)
Format settings, Endianness              : Big
Codec ID                                 : A_AC3
Duration                                 : 1h 13mn
Bit rate mode                            : Constant
Bit rate                                 : 640 Kbps
Channel(s)                               : 6 channels
Channel positions                        : Front: L C R, Side: L R, LFE
Sampling rate                            : 48.0 KHz
Bit depth                                : 16 bits
Compression mode                         : Lossy
Stream size                              : 339 MiB (11%)
Title                                    : Одноголосый закадровый | Андрей Дольский
Language                                 : Russian
Default                                  : No
Forced                                   : No

Audio #4
ID                                       : 5
Format                                   : AC-3
Format/Info                              : Audio Coding 3
Mode extension                           : CM (complete main)
Format settings, Endianness              : Big
Codec ID                                 : A_AC3
Duration                                 : 1h 13mn
Bit rate mode                            : Constant
Bit rate                                 : 640 Kbps
Channel(s)                               : 6 channels
Channel positions                        : Front: L C R, Side: L R, LFE
Sampling rate                            : 48.0 KHz
Bit depth                                : 16 bits
Compression mode                         : Lossy
Stream size                              : 339 MiB (11%)
Title                                    : Original
Language                                 : English
Default                                  : No
Forced                                   : No

Text #1
ID                                       : 6
Format                                   : UTF-8
Codec ID                                 : S_TEXT/UTF8
Codec ID/Info                            : UTF-8 Plain Text
Language                                 : Russian
Default                                  : No
Forced                                   : No

Text #2
ID                                       : 7
Format                                   : UTF-8
Codec ID                                 : S_TEXT/UTF8
Codec ID/Info                            : UTF-8 Plain Text
Language                                 : Ukrainian
Default                                  : No
Forced                                   : No

Text #3
ID                                       : 8
Format                                   : UTF-8
Codec ID                                 : S_TEXT/UTF8
Codec ID/Info                            : UTF-8 Plain Text
Language                                 : English
Default                                  : No
Forced                                   : No

Text #4
ID                                       : 9
Format                                   : UTF-8
Codec ID                                 : S_TEXT/UTF8
Codec ID/Info                            : UTF-8 Plain Text
Title                                    : SDH
Language                                 : English
Default                                  : No
Forced                                   : No

Menu
00:00:00.000                             : ru:01. Вступление
00:04:17.507                             : ru:02. В дурных руках
00:08:02.357                             : ru:03. Если туфелька подойдёт
00:13:46.242                             : ru:04. Королевский мышелов
00:17:54.615                             : ru:05. Маленькая путаница
00:20:58.090                             : ru:06. Вы не помните?
00:25:46.420                             : ru:07. Всё под контролем
00:28:21.658                             : ru:08. Хороший совет
00:33:15.744                             : ru:09. Два простых слова
00:36:43.159                             : ru:10. Работа на дому
00:41:40.748                             : ru:11. На балу
00:46:00.716                             : ru:12. На помощь
00:51:34.508                             : ru:13. Это ещё не конец
00:54:52.873                             : ru:14. Плохой кот
01:00:58.029                             : ru:15. Они жили счастливо... Снова
01:05:21.918                             : ru:16. Финальные титры
Семпл: narod.ru

Релиз группы:

picpicpic
Для увеличения картинки щелкните мышкой по превью

Этот торрент недоступен для скачивания без регистрации, однако доступен по публичной magnet-ссылке (источники с публичных трекеров). Перед использованием ссылки прочтите, пожалуйста Пользовательское соглашение, а также как можно дольше оставайтесь на раздаче! Для того, чтобы скачать сам торрент-файл (который видит больше источников), а также для того, чтобы поблагодарить релизера, вам необходимо зарегистрироваться. Если регистрироваться лень - вы можете также попробовать скачать релиз по нашим партнерским ссылкам ниже. Кроме того, зарегистрированным пользователям не показывается всплывающая реклама при скачивании.

[underverse.su].t22072.torrent
Трекер: Зарегистрирован   [ 08.12.2012 23:55 ]  

Статус: проверено (by garry at 08.12.2012 23:58)
Поблагодарили: 1 человек
Тип торрента: публичный - доступные источники с открытых трекеров: 
Размер: 3,15 GB (занимает 0,72 DVDR, для записи нужно 1 болванка DVDR/RW)
 
 
Похожие темы
Форум Тема Автор Торрент Отв. Посл. сооб.
Архив (мультфильмы) Золушка 3: Злые чары (Завихрение времени) / Cinderella III: A Twist in Time (Фрэнк Ниссен) [2007 г., фэнтези, мелодрама, семейный, мультфильм, DVDRip] Печаль'ka
0 | 0

1 | 2327

16

31.01.2018 17:07

11-Дек-2012 16:16

Топик был перенесен из форума Другое HD DVD, Blu-Ray в форум Мультфильмы HD-Video


gari
 

Яндекс.Метрика powered by Sphinx


В Н И М А Н И Е
Сайт не распространяет и не хранит электронные версии произведений, а лишь бесплатно и без коммерческой выгоды (не требуя взамен платы,
SMS и т.д.) предоставляет доступ к создаваемому пользователями каталогу ссылок на торрент-файлы, которые содержат только списки хеш-сумм.
Убедительная просьба с жалобами обращаться напрямую к пользователю, разместившему торрент файл.

Вверх