Loading...
Error

(Pop) VA - Лучшая Discoteka 80-х...90-х (2004) [FLAC (Tracks+.CUE), Lossless]

Статистика раздачи
Размер:  528 MB   |    Зарегистрирован:  2 месяца 23 дня   |    Скачан:  2 раза
Сидов:  1  |  0 KB/s  ]   Личеров:  0  |  0 KB/s  ]

* - сиды/пиры с внешних источников

   
 
Автор Сообщение

Бишеп Пол:Муж

24-Ноя-2012 13:05

VA - Лучшая Discoteka 80-х...90-х

Жанр: Pop
Год выпуска: 2004
Источник: CD
Производитель диска: Гранд Рекордс - GR CD-364
Аудиокодек: FLAC
Тип рипа: Tracks+.CUE
Битрейт аудио: lossless
Продолжительность: 01:12:22


Треклист:
01. гр. Комбинация - Американ бой
02. С. Владимирская - Дави на газ
03. гр. Империя - Поезд на Ленинград
04. гр. Божья коровка - Гранитный камушек
05. гр. Фристайл - Я тебе не верю
06. И. Корнелюк - Ходим по Парижу
07. Е. Осин - Плачет девушка в автомате
08. А. Барыкин - Одининокий день
09. В. Кузьмин - Ещё вчера
10. гр. Электроклуб - Тёмная лошадка
11. гр. Фристайл - Метелица
12. М. Журавлёва - Белая черёмуха
13. А. Барыкмн - Букет
14. Н. Гулькина - Китай (remix)
15. гр. Нэнси - Дым сигарет с ментолом
16. гр. Комиссар - Лёха
17. С. Васюта и гр. Сладкий Сон - На белом покрывале января (remix)

Код:

Exact Audio Copy V1.0 beta 3 from 29. August 2011

EAC extraction logfile from 22. August 2015, 17:40

Various Artists / Лучшая Discoteka 80-х...90-х

Used drive  : TSSTcorpCDDVDW SH-224DB   Adapter: 0  ID: 1

Read mode               : Secure
Utilize accurate stream : Yes
Defeat audio cache      : Yes
Make use of C2 pointers : No

Read offset correction                      : 6
Overread into Lead-In and Lead-Out          : No
Fill up missing offset samples with silence : Yes
Delete leading and trailing silent blocks   : No
Null samples used in CRC calculations       : Yes
Used interface                              : Installed external ASPI interface
Gap handling                                : Appended to previous track

Used output format              : User Defined Encoder
Selected bitrate                : 1024 kBit/s
Quality                         : High
Add ID3 tag                     : No
Command line compressor         : D:\Program Files\Foobar2000\encoders\flac.exe
Additional command line options :  -V -8 -T "Date=%year%" -T "Genre=%genre%" %source%

TOC of the extracted CD

     Track |   Start  |  Length  | Start sector | End sector
    ---------------------------------------------------------
        1  |  0:00.00 |  4:49.27 |         0    |    21701   
        2  |  4:49.27 |  4:50.30 |     21702    |    43481   
        3  |  9:39.57 |  4:50.01 |     43482    |    65232   
        4  | 14:29.58 |  5:10.44 |     65233    |    88526   
        5  | 19:40.27 |  4:30.21 |     88527    |   108797   
        6  | 24:10.48 |  4:23.64 |    108798    |   128586   
        7  | 28:34.37 |  2:39.32 |    128587    |   140543   
        8  | 31:13.69 |  4:24.16 |    140544    |   160359   
        9  | 35:38.10 |  3:39.39 |    160360    |   176823   
       10  | 39:17.49 |  3:17.43 |    176824    |   191641   
       11  | 42:35.17 |  3:54.62 |    191642    |   209253   
       12  | 46:30.04 |  3:53.35 |    209254    |   226763   
       13  | 50:23.39 |  4:17.52 |    226764    |   246090   
       14  | 54:41.16 |  4:31.14 |    246091    |   266429   
       15  | 59:12.30 |  5:57.18 |    266430    |   293222   
       16  | 65:09.48 |  3:07.69 |    293223    |   307316   
       17  | 68:17.42 |  3:40.00 |    307317    |   323816   

Track  1

     Filename D:\Desktop\VA - Лучшая Discoteka 80-х...90-х (2004)\01. гр. Комбинация - Американ бой.wav

     Pre-gap length  0:00:02.00

     Peak level 100.0 %
     Extraction speed 1.9 X
     Track quality 100.0 %
     Test CRC ECB883B6
     Copy CRC ECB883B6
     Accurately ripped (confidence 2)  [02AF8960]  (AR v2)
     Copy OK

Track  2

     Filename D:\Desktop\VA - Лучшая Discoteka 80-х...90-х (2004)\02. С. Владимирская - Дави на газ.wav

     Pre-gap length  0:00:02.00

     Peak level 100.0 %
     Extraction speed 2.1 X
     Track quality 100.0 %
     Test CRC 1849837E
     Copy CRC 1849837E
     Accurately ripped (confidence 2)  [7A97C48A]  (AR v2)
     Copy OK

Track  3

     Filename D:\Desktop\VA - Лучшая Discoteka 80-х...90-х (2004)\03. гр. Империя - Поезд на Ленинград.wav

     Pre-gap length  0:00:02.00

     Peak level 100.0 %
     Extraction speed 2.3 X
     Track quality 100.0 %
     Test CRC 76369F97
     Copy CRC 76369F97
     Accurately ripped (confidence 2)  [D8BD45E1]  (AR v2)
     Copy OK

Track  4

     Filename D:\Desktop\VA - Лучшая Discoteka 80-х...90-х (2004)\04. гр. Божья коровка - Гранитный камушек.wav

     Pre-gap length  0:00:02.00

     Peak level 100.0 %
     Extraction speed 2.5 X
     Track quality 100.0 %
     Test CRC 744069D4
     Copy CRC 744069D4
     Accurately ripped (confidence 2)  [EE6856CD]  (AR v2)
     Copy OK

Track  5

     Filename D:\Desktop\VA - Лучшая Discoteka 80-х...90-х (2004)\05. гр. Фристайл - Я тебе не верю.wav

     Pre-gap length  0:00:02.00

     Peak level 100.0 %
     Extraction speed 2.6 X
     Track quality 100.0 %
     Test CRC 87012246
     Copy CRC 87012246
     Accurately ripped (confidence 2)  [FE7DA985]  (AR v2)
     Copy OK

Track  6

     Filename D:\Desktop\VA - Лучшая Discoteka 80-х...90-х (2004)\06. И. Корнелюк - Ходим по Парижу.wav

     Pre-gap length  0:00:02.00

     Peak level 100.0 %
     Extraction speed 2.8 X
     Track quality 100.0 %
     Test CRC 7C828FE4
     Copy CRC 7C828FE4
     Accurately ripped (confidence 2)  [DE850911]  (AR v2)
     Copy OK

Track  7

     Filename D:\Desktop\VA - Лучшая Discoteka 80-х...90-х (2004)\07. Е. Осин - Плачет девушка в автомате.wav

     Pre-gap length  0:00:01.73

     Peak level 96.6 %
     Extraction speed 2.7 X
     Track quality 100.0 %
     Test CRC 062973C6
     Copy CRC 062973C6
     Accurately ripped (confidence 2)  [265B2DE5]  (AR v2)
     Copy OK

Track  8

     Filename D:\Desktop\VA - Лучшая Discoteka 80-х...90-х (2004)\08. А. Барыкин - Одининокий день.wav

     Pre-gap length  0:00:01.74

     Peak level 87.0 %
     Extraction speed 3.0 X
     Track quality 100.0 %
     Test CRC 028809CF
     Copy CRC 028809CF
     Accurately ripped (confidence 2)  [27535007]  (AR v2)
     Copy OK

Track  9

     Filename D:\Desktop\VA - Лучшая Discoteka 80-х...90-х (2004)\09. В. Кузьмин - Ещё вчера.wav

     Pre-gap length  0:00:02.00

     Peak level 100.0 %
     Extraction speed 3.0 X
     Track quality 100.0 %
     Test CRC E0EDFFF3
     Copy CRC E0EDFFF3
     Accurately ripped (confidence 2)  [2522590C]  (AR v2)
     Copy OK

Track 10

     Filename D:\Desktop\VA - Лучшая Discoteka 80-х...90-х (2004)\10. гр. Электроклуб - Тёмная лошадка.wav

     Pre-gap length  0:00:01.74

     Peak level 100.0 %
     Extraction speed 3.0 X
     Track quality 100.0 %
     Test CRC 2EB04C4D
     Copy CRC 2EB04C4D
     Accurately ripped (confidence 2)  [0D09CA43]  (AR v2)
     Copy OK

Track 11

     Filename D:\Desktop\VA - Лучшая Discoteka 80-х...90-х (2004)\11. гр. Фристайл - Метелица.wav

     Pre-gap length  0:00:02.00

     Peak level 100.0 %
     Extraction speed 3.2 X
     Track quality 100.0 %
     Test CRC 2C96852F
     Copy CRC 2C96852F
     Accurately ripped (confidence 2)  [1C8F224E]  (AR v2)
     Copy OK

Track 12

     Filename D:\Desktop\VA - Лучшая Discoteka 80-х...90-х (2004)\12. М. Журавлёва - Белая черёмуха.wav

     Pre-gap length  0:00:02.00

     Peak level 100.0 %
     Extraction speed 3.3 X
     Track quality 100.0 %
     Test CRC DF10903E
     Copy CRC DF10903E
     Accurately ripped (confidence 2)  [CBFB92E5]  (AR v2)
     Copy OK

Track 13

     Filename D:\Desktop\VA - Лучшая Discoteka 80-х...90-х (2004)\13. А. Барыкмн - Букет.wav

     Pre-gap length  0:00:02.00

     Peak level 82.6 %
     Extraction speed 3.5 X
     Track quality 100.0 %
     Test CRC AC86981C
     Copy CRC AC86981C
     Accurately ripped (confidence 1)  [7CCE7816]  (AR v2)
     Copy OK

Track 14

     Filename D:\Desktop\VA - Лучшая Discoteka 80-х...90-х (2004)\14. Н. Гулькина - Китай (remix).wav

     Pre-gap length  0:00:02.00

     Peak level 88.1 %
     Extraction speed 3.6 X
     Track quality 100.0 %
     Test CRC 9F67B896
     Copy CRC 9F67B896
     Accurately ripped (confidence 1)  [2CD11D89]  (AR v2)
     Copy OK

Track 15

     Filename D:\Desktop\VA - Лучшая Discoteka 80-х...90-х (2004)\15. гр. Нэнси - Дым сигарет с ментолом.wav

     Pre-gap length  0:00:02.00

     Peak level 78.5 %
     Extraction speed 3.1 X
     Track quality 99.9 %
     Test CRC 3EF32324
     Copy CRC 3EF32324
     Accurately ripped (confidence 2)  [1130442E]  (AR v2)
     Copy OK

Track 16

     Filename D:\Desktop\VA - Лучшая Discoteka 80-х...90-х (2004)\16. гр. Комиссар - Лёха.wav

     Pre-gap length  0:00:01.73

     Peak level 74.2 %
     Extraction speed 2.6 X
     Track quality 99.9 %
     Test CRC E8D67AB3
     Copy CRC E8D67AB3
     Accurately ripped (confidence 1)  [8D443F2B]  (AR v2)
     Copy OK

Track 17

     Filename D:\Desktop\VA - Лучшая Discoteka 80-х...90-х (2004)\17. С. Васюта и гр. Сладкий Сон - На белом покрывале января (remix).wav

     Pre-gap length  0:00:01.74

     Peak level 58.1 %
     Extraction speed 3.8 X
     Track quality 100.0 %
     Test CRC 38C3838E
     Copy CRC 38C3838E
     Accurately ripped (confidence 1)  [E6A2C6D2]  (AR v2)
     Copy OK

All tracks accurately ripped

No errors occurred

End of status report

==== Log checksum 44A4F3386CA289298AF5C62A5BA571C70D4E6FDFD900006CA400D6789669AF94 ====

Код:

REM GENRE Pop
REM DATE 2004
REM DISCID F810DD11
REM COMMENT "ExactAudioCopy v1.0b3"
PERFORMER "Various Artists"
TITLE "Лучшая Discoteka 80-х...90-х"
FILE "01. гр. Комбинация - Американ бой.wav" WAVE
  TRACK 01 AUDIO
    TITLE "гр. Комбинация - Американ бой"
    PERFORMER "Various Artists"
    INDEX 01 00:00:00
  TRACK 02 AUDIO
    TITLE "С. Владимирская - Дави на газ"
    PERFORMER "Various Artists"
    INDEX 00 04:47:27
FILE "02. С. Владимирская - Дави на газ.wav" WAVE
    INDEX 01 00:00:00
  TRACK 03 AUDIO
    TITLE "гр. Империя - Поезд на Ленинград"
    PERFORMER "Various Artists"
    INDEX 00 04:48:30
FILE "03. гр. Империя - Поезд на Ленинград.wav" WAVE
    INDEX 01 00:00:00
  TRACK 04 AUDIO
    TITLE "гр. Божья коровка - Гранитный камушек"
    PERFORMER "Various Artists"
    INDEX 00 04:48:01
FILE "04. гр. Божья коровка - Гранитный камушек.wav" WAVE
    INDEX 01 00:00:00
  TRACK 05 AUDIO
    TITLE "гр. Фристайл - Я тебе не верю"
    PERFORMER "Various Artists"
    INDEX 00 05:08:44
FILE "05. гр. Фристайл - Я тебе не верю.wav" WAVE
    INDEX 01 00:00:00
  TRACK 06 AUDIO
    TITLE "И. Корнелюк - Ходим по Парижу"
    PERFORMER "Various Artists"
    INDEX 00 04:28:21
FILE "06. И. Корнелюк - Ходим по Парижу.wav" WAVE
    INDEX 01 00:00:00
  TRACK 07 AUDIO
    TITLE "Е. Осин - Плачет девушка в автомате"
    PERFORMER "Various Artists"
    INDEX 00 04:21:66
FILE "07. Е. Осин - Плачет девушка в автомате.wav" WAVE
    INDEX 01 00:00:00
  TRACK 08 AUDIO
    TITLE "А. Барыкин - Одининокий день"
    PERFORMER "Various Artists"
    INDEX 00 02:37:33
FILE "08. А. Барыкин - Одининокий день.wav" WAVE
    INDEX 01 00:00:00
  TRACK 09 AUDIO
    TITLE "В. Кузьмин - Ещё вчера"
    PERFORMER "Various Artists"
    INDEX 00 04:22:16
FILE "09. В. Кузьмин - Ещё вчера.wav" WAVE
    INDEX 01 00:00:00
  TRACK 10 AUDIO
    TITLE "гр. Электроклуб - Тёмная лошадка"
    PERFORMER "Various Artists"
    INDEX 00 03:37:40
FILE "10. гр. Электроклуб - Тёмная лошадка.wav" WAVE
    INDEX 01 00:00:00
  TRACK 11 AUDIO
    TITLE "гр. Фристайл - Метелица"
    PERFORMER "Various Artists"
    INDEX 00 03:15:43
FILE "11. гр. Фристайл - Метелица.wav" WAVE
    INDEX 01 00:00:00
  TRACK 12 AUDIO
    TITLE "М. Журавлёва - Белая черёмуха"
    PERFORMER "Various Artists"
    INDEX 00 03:52:62
FILE "12. М. Журавлёва - Белая черёмуха.wav" WAVE
    INDEX 01 00:00:00
  TRACK 13 AUDIO
    TITLE "А. Барыкмн - Букет"
    PERFORMER "Various Artists"
    INDEX 00 03:51:35
FILE "13. А. Барыкмн - Букет.wav" WAVE
    INDEX 01 00:00:00
  TRACK 14 AUDIO
    TITLE "Н. Гулькина - Китай (remix)"
    PERFORMER "Various Artists"
    INDEX 00 04:15:52
FILE "14. Н. Гулькина - Китай (remix).wav" WAVE
    INDEX 01 00:00:00
  TRACK 15 AUDIO
    TITLE "гр. Нэнси - Дым сигарет с ментолом"
    PERFORMER "Various Artists"
    INDEX 00 04:29:14
FILE "15. гр. Нэнси - Дым сигарет с ментолом.wav" WAVE
    INDEX 01 00:00:00
  TRACK 16 AUDIO
    TITLE "гр. Комиссар - Лёха"
    PERFORMER "Various Artists"
    INDEX 00 05:55:20
FILE "16. гр. Комиссар - Лёха.wav" WAVE
    INDEX 01 00:00:00
  TRACK 17 AUDIO
    TITLE "С. Васюта и гр. Сладкий Сон - На белом покрывале января (remix)"
    PERFORMER "Various Artists"
    INDEX 00 03:05:70
FILE "17. С. Васюта и гр. Сладкий Сон - На белом покрывале января (remix).wav" WAVE
    INDEX 01 00:00:00

Этот торрент недоступен для скачивания без регистрации, однако доступен по публичной magnet-ссылке (источники с публичных трекеров). Перед использованием ссылки прочтите, пожалуйста Пользовательское соглашение, а также как можно дольше оставайтесь на раздаче! Для того, чтобы скачать сам торрент-файл (который видит больше источников), а также для того, чтобы поблагодарить релизера, вам необходимо зарегистрироваться. Если регистрироваться лень - вы можете также попробовать скачать релиз по нашим партнерским ссылкам ниже.

[underverse.me].t89168.torrent
Трекер: Зарегистрирован   [ 23.09.2017 17:58 ]  

Статус: * не проверено
Поблагодарили: 1 человек
Тип торрента: публичный - доступные источники с открытых трекеров: 
Размер: 528 MB (занимает 0,12 DVDR, для записи нужно 1 болванка DVDR/RW)
 
 
Похожие темы
Форум Тема Автор Торрент Отв. Посл. сооб.
Сборники Pop, Disco, Dance (Pop) VA - Ураган хитов (2009) [MP3, 128 kbps] БогDan
0 | 0

1 | 2362

22

02.07.2009 19:05

Сборники Pop, Disco, Dance (Pop) VA - Авторадио дискотека - 80х (2007) [MP3,128 kbps] Алексей 25
2 | 1

2 | 2561

57

07.02.2014 19:10

Сборники Pop, Disco, Dance (Pop) VA - Все новинки этого года (2011) [MP3, 256 kbps] МУХА~
0 | 0

0 | 1194

11

23.02.2011 18:18

Сборники Pop, Disco, Dance (Pop) VA - Eurovision Song Contest Dusseldorf 2011 (2 CD) (2011) [MP3, CBR 192 kbps] ZondeR
0 | 0

1 | 905

3

19.09.2011 13:33

Сборники Pop, Disco, Dance (Pop) VA - Супер ДискотЭка 90-х from AGR (2011) [MP3, 320 kbps] Dark6120
0 | 0

1 | 1251

20

19.09.2011 12:15

Сборники Pop, Disco, Dance (Pop) VA - Лучшая 100-ка Ретро-FM: Золотые хиты 80-х 50/50 (2011) [MP3, 256 kbps] 90ytr90
5 | 0

0 | 1642

75

12.12.2012 14:58

Сборники Pop, Disco, Dance (Pop) VA - Лучшая русская 100-ка Super новинок 15 (2012) [MP3, 256 kbps] 90ytr90
0 | 0

0 | 1232

21

12.12.2012 15:46

Сборники Pop, Disco, Dance (Pop) VA - Новое и лучшее: Топ сборник 3 (2012) [MP3, 256 kbps] 90ytr90
0 | 0

0 | 1216

20

12.12.2012 16:16

Сборники Pop, Disco, Dance (Pop) VA - Зимний Хит (2012) [MP3, 256 kbps] 90ytr90
0 | 0

1 | 1566

19

16.12.2012 11:57

Сборники Pop, Disco, Dance (Pop) VA - Зимняя дискотека в стиле ретро (2012) [MP3, 256 kbps] 90ytr90
1 | 0

0 | 1925

44

16.12.2012 10:28


Яндекс.Метрика powered by Sphinx


В Н И М А Н И Е
Сайт не распространяет и не хранит электронные версии произведений, а лишь бесплатно и без коммерческой выгоды (не требуя взамен платы,
SMS и т.д.) предоставляет доступ к создаваемому пользователями каталогу ссылок на торрент-файлы, которые содержат только списки хеш-сумм.
Убедительная просьба с жалобами обращаться напрямую к пользователю, разместившему торрент файл.

Вверх