Loading...
Error

(EBM, Electro, Industrial) ES23 - Heaven Or Hell (2012) [FLAC (Tracks+.CUE), lossless]

Статистика раздачи
Размер:  585 MB   |    Зарегистрирован:  5 лет 8 месяцев   |    Скачан:  6 раз

Полного источника не было: 3 месяца 26 дней

Сидов:  0  |  0 KB/s  ]   Личеров:  0  |  0 KB/s  ]

* - сиды/пиры с внешних источников

   
 
Автор Сообщение

Jimmy Пол:Муж

21-Сен-2012 18:36

ES23 - Heaven Or Hell

Жанр: EBM, Electro, Industrial
Год выпуска: 2012
Производитель диска: Germany
Аудиокодек: FLAC
Тип рипа: Tracks+.CUE
Битрейт аудио: lossless
Продолжительность: 01:06:38
Треклист:
01. About A God 2010 5:04
02. Bite 5:20
03. Child 4:41
04. No Return 4:47
05. Heaven Or Hell 4:40
06. Sweetmeat 2010 4:39
07. Zarem 6:08
08. For Those Who Died 5:07
09. She 4:25
10. Machine 5:20
11. I Want You 4:58
12. Pixelbreed Theme (feat. Fredrick C.) 6:15
13. About A God (original) 4:45

Код:

Exact Audio Copy V1.0 beta 3 from 29. August 2011
Отчёт EAC об извлечении, выполненном 5. августа 2012, 20:42
ES23 / Heaven Or Hell
Дисковод: hp      DVD-RAM UJ8B1   Adapter: 0  ID: 2
Режим чтения                 : Достоверность
Использование точного потока : Да
Отключение кэша аудио        : Да
Использование указателей C2  : Нет
Коррекция смещения при чтении                     : 6
Способность читать области Lead-in и Lead-out     : Нет
Заполнение пропущенных сэмплов тишиной            : Да
Удаление блоков с тишиной в начале и конце        : Нет
При вычислениях CRC использовались нулевые сэмплы : Да
Интерфейс                                         : Встроенный Win32-интерфейс для Win NT/2000
Выходной формат          : Пользовательский кодировщик
Выбранный битрейт        : 1024 kBit/s
Качество                 : Высокий
Добавление ID3-тега      : Нет
Утилита сжатия           : C:\Program Files (x86)\Exact Audio Copy\FLAC\FLAC.EXE
Дополнительные параметры : -V -8 -T "Date=%year%" -T "Genre=%genre%" %source%
TOC извлечённого CD
     Трек |   Старт  | Длительность | Начальный сектор | Конечный сектор
    ---------------------------------------------------------------------
       1  |  0:00.00 |    5:06.06   |           0      |      22955
       2  |  5:06.06 |    5:22.47   |       22956      |      47152
       3  | 10:28.53 |    4:43.57   |       47153      |      68434
       4  | 15:12.35 |    4:49.45   |       68435      |      90154
       5  | 20:02.05 |    4:42.66   |       90155      |     111370
       6  | 24:44.71 |    4:41.10   |      111371      |     132455
       7  | 29:26.06 |    6:10.07   |      132456      |     160212
       8  | 35:36.13 |    5:09.18   |      160213      |     183405
       9  | 40:45.31 |    4:27.16   |      183406      |     203446
      10  | 45:12.47 |    5:22.69   |      203447      |     227665
      11  | 50:35.41 |    5:00.08   |      227666      |     250173
      12  | 55:35.49 |    6:17.70   |      250174      |     278518
      13  | 61:53.44 |    4:45.23   |      278519      |     299916
Характеристики диапазона извлечения и сообщения об ошибках
Выбранный диапазон
     Имя файла C:\Users\HP\Music\ES23 - Heaven Or Hell.wav
     Пиковый уровень 98.8 %
     Скорость извлечения 4.5 X
     Качество диапазона 100.0 %
     CRC теста CDC0F93C
     CRC копии CDC0F93C
     Копирование... OK
Ошибок не произошло
AccurateRip: сводка
Трек  1  отсутствует в базе данных
Трек  2  отсутствует в базе данных
Трек  3  отсутствует в базе данных
Трек  4  отсутствует в базе данных
Трек  5  отсутствует в базе данных
Трек  6  отсутствует в базе данных
Трек  7  отсутствует в базе данных
Трек  8  отсутствует в базе данных
Трек  9  отсутствует в базе данных
Трек 10  отсутствует в базе данных
Трек 11  отсутствует в базе данных
Трек 12  отсутствует в базе данных
Трек 13  отсутствует в базе данных
Ни одного трека нет в базе AccurateRip
Конец отчёта
==== Контрольная сумма отчёта 6B0142571FF5F6127AE90A8DB67FBC89AA3426B72F240904AF81A2A4D0ADEA03 ====

Этот торрент недоступен для скачивания без регистрации, однако доступен по публичной magnet-ссылке (источники с публичных трекеров). Перед использованием ссылки прочтите, пожалуйста Пользовательское соглашение, а также как можно дольше оставайтесь на раздаче! Для того, чтобы скачать сам торрент-файл (который видит больше источников), а также для того, чтобы поблагодарить релизера, вам необходимо зарегистрироваться. Если регистрироваться лень - вы можете также попробовать скачать релиз по нашим партнерским ссылкам ниже. Кроме того, зарегистрированным пользователям не показывается всплывающая реклама при скачивании.

[underverse.su].t20043.torrent
Трекер: Зарегистрирован   [ 21.09.2012 18:36 ]  

Статус: проверено (by Jimmy at 21.09.2012 18:37)
Поблагодарили: пока никто не поблагодарил...
Тип торрента: публичный - доступные источники с открытых трекеров: 
Размер: 585 MB (занимает 0,13 DVDR, для записи нужно 1 болванка DVDR/RW)
 
 
Похожие темы
Форум Тема Автор Торрент Отв. Посл. сооб.
EBM, Industrial, Dark Electro, Darkwave, Gothic Synth (EBM, Electro Industrial) Decoded Feedback - Waiting For The Storm (2016) [MP3, 320 kbps] ANDRAKO
0 | 0

0 | 511

6

27.12.2016 08:27

EBM, Industrial, Dark Electro, Darkwave, Gothic Synth (EBM, Electro Industrial, Futurepop) Decoded Feedback - Dark Passenger (Deluxe Edition) (2016) [MP3, 320 kbps] ANDRAKO
0 | 0

0 | 541

4

27.12.2016 08:16

EBM, Industrial, Dark Electro, Darkwave, Gothic Synth (EBM, Electro Industrial) Nine Seconds - Nothing To Confess (2014) [MP3, 320 kbps] ANDRAKO
2 | 0

0 | 491

2

27.11.2016 10:46

EBM, Industrial, Dark Electro, Darkwave, Gothic Synth (EBM, Electro-Idustrial) Binary Park - Singularity (2014) [MP3, 320 kbps] ANDRAKO
2 | 0

0 | 429

1

27.11.2016 09:43

EBM, Industrial, Dark Electro, Darkwave, Gothic Synth (EBM, Electro Industial, Darkwave) Ad Inferna - Opus 7: Elevation (2014) [MP3, 320 kbps] ANDRAKO
3 | 0

0 | 409

3

10.11.2016 15:14

EBM, Industrial, Dark Electro, Darkwave, Gothic Synth (EBM, Electro Industrial) Sebastian Komor - Vikings, Thrones & Dragonbones (2014) [MP3, 320 kbps] ANDRAKO
2 | 0

0 | 380

1

09.11.2016 16:52

EBM, Industrial, Dark Electro, Darkwave, Gothic Synth (EBM, Electro, Experimental) Clock DVA - Clock 2 (2014) [MP3, 320 kbps] ANDRAKO
2 | 0

0 | 320

2

09.11.2016 16:35

EBM, Industrial, Dark Electro, Darkwave, Gothic Synth (EBM, Electro Industrial) Finkseye - Deadweight (2016) [MP3, 320 kbps] ANDRAKO
1 | 0

0 | 364

3

04.11.2016 16:49

EBM, Industrial, Dark Electro, Darkwave, Gothic Synth (EBM, Electro Industrial) Project Pitchfork - Second Anthology (2016) [MP3, 320 kbps] ANDRAKO
5 | 0

0 | 496

3

12.12.2016 22:24

EBM, Industrial, Dark Electro, Darkwave, Gothic Synth (EBM, Electro Industrial, Synthpop) X-Marks The Pedwalk - Secrets (2017) [MP3, 320 kbps] ANDRAKO
0 | 0

0 | 694

7

25.03.2017 08:37


Яндекс.Метрика powered by Sphinx


В Н И М А Н И Е
Сайт не распространяет и не хранит электронные версии произведений, а лишь бесплатно и без коммерческой выгоды (не требуя взамен платы,
SMS и т.д.) предоставляет доступ к создаваемому пользователями каталогу ссылок на торрент-файлы, которые содержат только списки хеш-сумм.
Убедительная просьба с жалобами обращаться напрямую к пользователю, разместившему торрент файл.

Вверх