Loading...
Error

Маша и Медведь / Машины сказки. Выпуск №2 (6 серий) (Олег Кузовков,) [2012 г., Мультипликационный сериал, DVD5]

Статистика раздачи
Размер:  1,8 GB   |    Зарегистрирован:  5 лет 5 месяцев   |    Скачан:  47 раз

Полного источника не было: 1 день 11 часов

Сидов:  0  |  0 KB/s  ]   Личеров:  0  |  0 KB/s  ]

* - сиды/пиры с внешних источников

   
 
Автор Сообщение

Ruvest Пол:Муж

22-Июн-2012 20:59

Маша и Медведь / Машины сказки.
Выпуск №2

Год выпуска: 2012
Страна: Россия
Студия: «АНИМАККОРД»
Жанр: Мультипликационный сериал
Продолжительность: ~ 00:34:50

Режиссер: Олег Кузовков, Олег Ужинов, Денис Червяцов

Рейтинг IMDB:

Роли озвучивали: Алина Кукушкина, Эдуард Назаров, Борис Кутневич

Описание:
Маша продолжает рассказывать старые, добрые сказки на свой лад, со свойственным ей обаянием и чувством юмора, ведь дети видят этот мир не так, как взрослые. На диске «Машины Сказки» от студии «Анимаккорд» и компании «Мистерия Звука» вы увидите 6 очаровательных и трогательных мультфильмов: «Вершки и корешки», «Снегурочка», «Мальчик с пальчик», «Крошечка-Хаврошечка», «Царевна-лягушка» и «Бычок-смолянной бочок». Новые истории от Маши не просто несут в себе русские традиции, но дарят радость и веселье.
Качество: DVD5
Формат: DVD Video
Видео кодек: MPEG2
Аудио кодек: AC3
Видео: MPEG-2 720x576, 4:3 ~1000 Кбит/сек, 25.00fps
Аудио: AC3, 2ch. 192 Кбит/сек
Список серий:
01. Вершки и корешки
02. Царевна-лягушка
03. Снегурочка
04. Мальчик с пальчик
05. Крошечка-хаврошечка
06. Бычок смоляной бочок
iTitle: Masha.i.Medved.Mashiny.skazki.2.vypusk.2012.DVD-5
Size: 1.80 Gb ( 1 885 272,00 KBytes ) - DVD-5
Enabled regions: 1, 2, 3, 4, 5, 6, 7, 8

VTS_01 :
Play Length: 00:00:16+00:34:50+00:00:31
Video: PAL 16:9 (720x576) VBR, Auto Letterboxed
Audio:
Russian (Dolby AC3, 2 ch)

* Menus Information *

VIDEO_TS Menu
Video:
NTSC 4:3 (720x480) VBR
Auto Pan&Scan, Auto Letterboxed
Russian Language Unit :
Title Menu

VTS_01 Menu
Video:
PAL 16:9 (720x576) VBR
Auto Letterboxed
Audio:
Not specified (Dolby AC3, 2 ch)
Russian Language Unit :
Root Menu
Chapter (PTT) Menu
Общее
Полное имя : С:\Машины сказки. Выпуск №2 (2012) DVD5\VIDEO_TS\VIDEO_TS.BUP
Формат : DVD Video
Профиль формата : Menu
Размер файла : 8,00 Кбайт
Режим общего битрейта : Переменный

Видео
Идентификатор : 224 (0xE0)
Формат : MPEG Video
Версия формата : Version 1
Вид битрейта : Переменный
Ширина : 720 пикселей
Высота : 480 пикселей
Соотношение сторон : 4:3
Частота кадров : 29,970 кадров/сек
Стандарт вещания : NTSC
Метод сжатия : С потерями

Общее
Полное имя : C:\Машины сказки. Выпуск №2 (2012) DVD5\VIDEO_TS\VIDEO_TS.IFO
Формат : DVD Video
Профиль формата : Menu
Размер файла : 8,00 Кбайт
Режим общего битрейта : Переменный

Видео
Идентификатор : 224 (0xE0)
Формат : MPEG Video
Версия формата : Version 1
Вид битрейта : Переменный
Ширина : 720 пикселей
Высота : 480 пикселей
Соотношение сторон : 4:3
Частота кадров : 29,970 кадров/сек
Стандарт вещания : NTSC
Метод сжатия : С потерями

Общее
Полное имя : C:\Машины сказки. Выпуск №2 (2012) DVD5\VIDEO_TS\VTS_01_0.BUP
Формат : DVD Video
Профиль формата : Program
Размер файла : 36,0 Кбайт
Продолжительность : 34 м.
Режим общего битрейта : Переменный
Общий поток : 141 бит/сек

Видео
Идентификатор : 224 (0xE0)
Формат : MPEG Video
Версия формата : Version 2
Продолжительность : 34 м.
Вид битрейта : Переменный
Ширина : 720 пикселей
Высота : 576 пикселей
Соотношение сторон : 16:9
Частота кадров : 25,000 кадров/сек
Стандарт вещания : PAL
Метод сжатия : С потерями

Аудио
Идентификатор : 128 (0x80)
Формат : AC-3
Формат/Информация : Audio Coding 3
Продолжительность : 34 м.
Каналы : 2 канала
Частота : 48,0 КГц
Метод сжатия : С потерями
Язык : Russian

Меню #1
Продолжительность : 16 с.
00:00:00.000 : Chapter 1
00:00:05.000 : Chapter 2
List (Audio) : 0

Меню #2
Продолжительность : 34 м.
00:00:00.000 : Chapter 1
00:00:20.000 : Chapter 2
00:01:00.000 : Chapter 3
00:01:40.000 : Chapter 4
00:02:00.000 : Chapter 5
00:02:40.000 : Chapter 6
00:03:00.000 : Chapter 7
00:03:40.000 : Chapter 8
00:04:20.000 : Chapter 9
00:04:40.000 : Chapter 10
00:05:18.000 : Chapter 11
List (Audio) : 0

Общее
Полное имя : C:\Машины сказки. Выпуск №2 (2012) DVD5\VIDEO_TS\VTS_01_0.IFO
Формат : DVD Video
Профиль формата : Program
Размер файла : 36,0 Кбайт
Продолжительность : 34 м.
Режим общего битрейта : Переменный
Общий поток : 141 бит/сек

Видео
Идентификатор : 224 (0xE0)
Формат : MPEG Video
Версия формата : Version 2
Продолжительность : 34 м.
Вид битрейта : Переменный
Ширина : 720 пикселей
Высота : 576 пикселей
Соотношение сторон : 16:9
Частота кадров : 25,000 кадров/сек
Стандарт вещания : PAL
Метод сжатия : С потерями

Аудио
Идентификатор : 128 (0x80)
Формат : AC-3
Формат/Информация : Audio Coding 3
Продолжительность : 34 м.
Каналы : 2 канала
Частота : 48,0 КГц
Метод сжатия : С потерями
Язык : Russian

Меню #1
Продолжительность : 16 с.
00:00:00.000 : Chapter 1
00:00:05.000 : Chapter 2
List (Audio) : 0

Меню #2
Продолжительность : 34 м.
00:00:00.000 : Chapter 1
00:00:20.000 : Chapter 2
00:01:00.000 : Chapter 3
00:01:40.000 : Chapter 4
00:02:00.000 : Chapter 5
00:02:40.000 : Chapter 6
00:03:00.000 : Chapter 7
00:03:40.000 : Chapter 8
00:04:20.000 : Chapter 9
00:04:40.000 : Chapter 10
00:05:18.000 : Chapter 11
List (Audio) : 0

Общее
Полное имя : C:\Машины сказки. Выпуск №2 (2012) DVD5\VIDEO_TS\VTS_01_0.VOB
Формат : MPEG-PS
Размер файла : 1,04 Мбайт
Продолжительность : 11 с.
Общий поток : 731 Кбит/сек

Видео
Идентификатор : 224 (0xE0)
Формат : MPEG Video
Версия формата : Version 2
Профиль формата : Main@Main
Параметр BVOP формата : Нет
Параметр матрицы формата : Выборочная
Параметр GOP формата : N=1
Продолжительность : 40 мс.
Битрейт : 524 Кбит/сек
Максимальный битрейт : 8000 Кбит/сек
Ширина : 720 пикселей
Высота : 576 пикселей
Соотношение сторон : 16:9
Частота кадров : 25,000 кадров/сек
Стандарт вещания : PAL
Цветовое пространство : YUV
Субдискретизация насыщенности : 4:2:0
Битовая глубина : 8 бит
Тип развёртки : Прогрессивная
Порядок развёртки : Верхнее поле первое
Метод сжатия : С потерями
Бит/(Пиксели*Кадры) : 0.051
Размер потока : 2,56 Кбайт (0%)

Аудио
Идентификатор : 189 (0xBD)-128 (0x80)
Формат : AC-3
Формат/Информация : Audio Coding 3
Расширение режима : CM (complete main)
Режим смешивания : DVD-Video
Продолжительность : 11 с.
Вид битрейта : Постоянный
Битрейт : 192 Кбит/сек
Каналы : 2 канала
Расположение каналов : Front: L R
Частота : 48,0 КГц
Битовая глубина : 16 бит
Метод сжатия : С потерями
Размер потока : 281 Кбайт (26%)

Текст #1
Идентификатор : 189 (0xBD)-32 (0x20)
Формат : RLE
Формат/Информация : Run-length encoding
Режим смешивания : DVD-Video

Текст #2
Идентификатор : 189 (0xBD)-33 (0x21)
Формат : RLE
Формат/Информация : Run-length encoding
Режим смешивания : DVD-Video

Меню

Общее
Полное имя : C:\Машины сказки. Выпуск №2 (2012) DVD5\VIDEO_TS\VTS_01_1.VOB
Формат : MPEG-PS
Размер файла : 1024 Мбайт
Продолжительность : 1 м. 32 с.
Режим общего битрейта : Переменный
Общий поток : 92,5 Мбит/сек

Видео
Идентификатор : 224 (0xE0)
Формат : MPEG Video
Версия формата : Version 2
Профиль формата : Main@Main
Параметр BVOP формата : Да
Параметр матрицы формата : Выборочная
Продолжительность : 1 м. 32 с.
Вид битрейта : Переменный
Битрейт : 90,5 Мбит/сек
Максимальный битрейт : 8000 Кбит/сек
Ширина : 720 пикселей
Высота : 576 пикселей
Соотношение сторон : 16:9
Частота кадров : 25,000 кадров/сек
Стандарт вещания : PAL
Цветовое пространство : YUV
Субдискретизация насыщенности : 4:2:0
Битовая глубина : 8 бит
Метод сжатия : С потерями
Бит/(Пиксели*Кадры) : 8.725
Размер потока : 1001 Мбайт (98%)

Аудио
Идентификатор : 189 (0xBD)-128 (0x80)
Формат : AC-3
Формат/Информация : Audio Coding 3
Расширение режима : CM (complete main)
Режим смешивания : DVD-Video
Продолжительность : 1 м. 32 с.
Вид битрейта : Постоянный
Битрейт : 192 Кбит/сек
Каналы : 2 канала
Расположение каналов : Front: L R
Частота : 48,0 КГц
Битовая глубина : 16 бит
Метод сжатия : С потерями
Задержка видео : -50 мс.
Размер потока : 2,12 Мбайт (0%)

Меню

Общее
Полное имя : C:\Машины сказки. Выпуск №2 (2012) DVD5\VIDEO_TS\VTS_01_2.VOB
Формат : MPEG-PS
Размер файла : 816 Мбайт
Продолжительность : 6 с. 360 мс.
Режим общего битрейта : Переменный
Общий поток : 1076 Мбит/сек

Видео
Идентификатор : 224 (0xE0)
Формат : MPEG Video
Версия формата : Version 2
Профиль формата : Main@Main
Параметр BVOP формата : Да
Параметр матрицы формата : Выборочная
Продолжительность : 6 с. 360 мс.
Вид битрейта : Переменный
Битрейт : 1055 Мбит/сек
Максимальный битрейт : 8500 Кбит/сек
Ширина : 720 пикселей
Высота : 576 пикселей
Соотношение сторон : 16:9
Частота кадров : 25,000 кадров/сек
Стандарт вещания : PAL
Цветовое пространство : YUV
Субдискретизация насыщенности : 4:2:0
Битовая глубина : 8 бит
Тип развёртки : Прогрессивная
Метод сжатия : С потерями
Бит/(Пиксели*Кадры) : 101.718
Размер потока : 800 Мбайт (98%)

Аудио
Идентификатор : 189 (0xBD)-128 (0x80)
Формат : AC-3
Формат/Информация : Audio Coding 3
Расширение режима : CM (complete main)
Режим смешивания : DVD-Video
Продолжительность : 6 с. 360 мс.
Вид битрейта : Постоянный
Битрейт : 192 Кбит/сек
Каналы : 2 канала
Расположение каналов : Front: L R
Частота : 48,0 КГц
Битовая глубина : 16 бит
Метод сжатия : С потерями
Задержка видео : -264 мс.
Размер потока : 149 Кбайт (0%)

Меню
picpicpicpicpicpicpicpic
Для увеличения картинки щелкните мышкой по превью

Этот торрент недоступен для скачивания без регистрации, однако доступен по публичной magnet-ссылке (источники с публичных трекеров). Перед использованием ссылки прочтите, пожалуйста Пользовательское соглашение, а также как можно дольше оставайтесь на раздаче! Для того, чтобы скачать сам торрент-файл (который видит больше источников), а также для того, чтобы поблагодарить релизера, вам необходимо зарегистрироваться. Если регистрироваться лень - вы можете также попробовать скачать релиз по нашим партнерским ссылкам ниже.

[underverse.su].t18435.torrent
Трекер: Зарегистрирован   [ 22.06.2012 20:59 ]  

Статус: проверено (by Паукан at 22.06.2012 21:37)
Поблагодарили: 2 человека
Тип торрента: публичный - доступные источники с открытых трекеров: 
Размер: 1,8 GB (занимает 0,41 DVDR, для записи нужно 1 болванка DVDR/RW)
 
 
Похожие темы
Форум Тема Автор Торрент Отв. Посл. сооб.
Наше кино [DVDRip, Low-Res HDRip, и т.д.] Маша и Медведь (Владимир Фатьянов) [2013 г., мелодрама, SATRip] 90ytr90
1 | 0

0 | 1695

28

22.04.2013 14:55

Мультфильмы HQ Маша и Медведь: Сладкая жизнь (s 33) (Олег Кузовков, Олег Ужинов, Денис Червяцов, Марина Нефедова) [2013 г., мультфильм, короткометражка, комедия, семейный, HDTVRip] HQ Underverse Печаль'ka
0 | 0

1 | 1819

147

06.09.2013 00:57

* Мультсериалы Маша и Медведь. (1-64 серий) + Бонус (Олег Кузовков, Олег Ужинов, Денис Червяцов ) [2009-2017 г., комедия, приключения, семейный, мультфильм, DVDRip] МУХА~
3 | 1

52 | 28556

9

04.07.2016 19:02

Мультсериалы Маша и медведь: К Вашим услугам! [60] (Олег Кузовков, Олег Ужинов, Денис Червяцов) [2016 г., мультсериал, компьютерная анимация, сказка, детский, семейный, WEB-DLRip] 90ytr90
31 | 0

0 | 611

7

18.11.2016 18:46

Мультсериалы Маша и медведь: К Вашим услугам! [60] (Олег Кузовков, Олег Ужинов, Денис Червяцов) [2016 г., мультсериал, компьютерная анимация, сказка, детский, семейный, WEBRip 720p] 90ytr90
35 | 0

0 | 536

11

18.11.2016 16:29

Мультсериалы Маша и медведь. Двое на одного [36] (Олег Кузовков, Олег Ужинов, Денис Червяцов...) [2013 г. мультфильм, короткометражка, комедия, семейный, WEB-DLRip] Станислав Карбанович
1 | 0

1 | 2742

103

08.10.2013 15:03

T Мультсериалы Маша и Медведь + Машины Сказки (Олег Ужинов, Денис Червяцов ) [2009-2013 г., Мультфильм, короткометражка, комедия, семейный , HDTVRip-AVC] Станислав Карбанович
0 | 0

0 | 1828

28

02.01.2014 13:02

* Мультсериалы маша и медведь (Олег Ужинов, Денис Червяцов, Марина Нефедова, Васико Бедошвили) [2009-2016 г., , HDRip] aepkugesi

0 | 492

29.10.2016 17:01

T Мультсериалы Маша и Медведь [01-58] (Олег Кузовков, Олег Ужинов, Денис Червяцов...) [2009-2015 г., мультфильм, короткометражка, комедия, семейный, BDRip-AVC, WEB-DLRip-AVC] 90ytr90
5 | 4

0 | 1777

7

16.01.2015 16:09

Мультсериалы Маша и медведь: Game Over [59] (Олег Кузовков, Олег Ужинов, Денис Червяцов) [2016 г., мультсериал, компьютерная анимация, сказка, детский, семейный, WEB-DLRip] 90ytr90
31 | 0

0 | 544

15

14.10.2016 20:20

sherman4240 

23-Июн-2012 03:09

Спасибо

Яндекс.Метрика powered by Sphinx


В Н И М А Н И Е
Сайт не распространяет и не хранит электронные версии произведений, а лишь бесплатно и без коммерческой выгоды (не требуя взамен платы,
SMS и т.д.) предоставляет доступ к создаваемому пользователями каталогу ссылок на торрент-файлы, которые содержат только списки хеш-сумм.
Убедительная просьба с жалобами обращаться напрямую к пользователю, разместившему торрент файл.

Вверх